[bittorrent] gd79-05-05.89056.fob-sonyecm.walker-scotton-miller.sbeok.t-flac16

Automated Mailer noreply-bt.e at etree.org
Wed May 25 06:56:56 MDT 2011


Band:           Grateful Dead
Torrent Name:   gd79-05-05.89056.fob-sonyecm.walker-scotton-miller.sbeok.t-flac16
Uploaded by:    germain
DB Link:        http://db.etree.org/shn/89056
Details:        http://bt.etree.org/details.php?id=545161

Contact the seeder at http://db.etree.org/germain

If the link to this show does not work, it was probably removed for
being non-trade-friendly.

Description / text file:
-------------------------
This is a tagged version of shnid: 89056

Grateful Dead 
May 5, 1979
Civic Center 
Baltimore, MD

Recording Info:
Sony ECM-250 -> Cassette Master (Sony TC-158/Maxell UDXL-II90)

Transfer Info:
Cassette Master (Nakamichi DR-1) -> Sound Devices 744T (24bit/96k) -> 
Samplitude Professional v9.12 -> FLAC/16
(3 Discs Audio / 2 Discs FLAC)

All Transfers and Mastering By Charlie Miller
charliemiller87 at earthlink.net
December 13, 2007

Patch Info:
Nakamichi 700 -> Cassette Master -> Dat -> CD (shnid=18871) supplies:
Tennessee Jed (6:39 - 6:48)
Drums (7:39 - 7:58)

Notes:
-- Set 2 is seamless
-- Recorded By Joani Walker
-- Sounds like a FOB recording
-- Thanks to Joani Walker and Paul Scotton for the tapes
-- Patch source recorded by Robert Wagner and Barry Glassberg
-- Patch source pitch adjusted to match Joani's tape
________________________________________________________________________

--Set 1--
101-d1t01 - Tuning
102-d1t02 - Jack Straw
103-d1t03 - Sugaree
104-d1t04 - El Paso
105-d1t05 - Friend of the Devil
106-d1t06 - It's All Over Now
107-d1t07 - Tennessee Jed
108-d1t08 - Dancin' in the Street

--Set 2--
201-d2t01 - Scarlet Begonias ->
202-d2t02 - Fire on the Mountain
203-d2t03 - Samson & Delilah
204-d3t01 - He's Gone ->
205-d3t02 - Drums ->
206-d3t03 - Space ->
207-d3t04 - The Other One ->
208-d3t05 - Wharf Rat ->
209-d3t06 - Sugar Magnolia

--Encore--
210-d3t07 - One More Saturday Night
________________________________________________________________________

Tagging notes:
Show information is embedded within the header of each flac file. 
It will display on any player capable of directly playing flac files. 
If converted to wav during processing, all tags will be stripped, 
however audio data will remain unaffected. 
If you must transcode to a lossy format, do so directly Flac > Lossy.
Use st5 to validate audio integrity.
Md5 values will change if tagging is altered.
B. Proctor 5-12-11
________________________________________________________________________


SHNTOOL OUTPUT:
    length     expanded size   cdr  WAVE problems filename
     1:47.38       18964220    ---   --   -----   gd79-05-05d1t01.wav
     6:06.02       64567148    ---   --   -----   gd79-05-05d1t02.wav
    15:40.22      165867788    ---   --   -----   gd79-05-05d1t03.wav
     4:23.44       46496732    ---   --   -----   gd79-05-05d1t04.wav
     9:44.74      103191692    ---   --   -----   gd79-05-05d1t05.wav
     8:22.03       88559900    ---   --   -----   gd79-05-05d1t06.wav
     8:21.10       88399964    ---   --   -----   gd79-05-05d1t07.wav
    11:02.43      116877980    ---   --   -----   gd79-05-05d1t08.wav
    11:50.32      125319308    ---   --   -----   gd79-05-05d2t01.wav
    13:19.31      141016556    ---   --   -----   gd79-05-05d2t02.wav
     8:39.32       91626908    ---   --   -----   gd79-05-05d2t03.wav
    15:53.30      168179804    ---   --   -----   gd79-05-05d3t01.wav
     8:48.25       93198044    ---   --   -----   gd79-05-05d3t02.wav
     4:09.06       43937756    ---   --   -----   gd79-05-05d3t03.wav
    13:41.19      144869132    ---   --   -----   gd79-05-05d3t04.wav
    10:01.42      106115228    ---   --   -----   gd79-05-05d3t05.wav
    10:34.04      111847052    ---   --   -----   gd79-05-05d3t06.wav
     4:56.62       52360268    ---   --   -----   gd79-05-05d3t07.wav
   167:21.69     1771395480 B                     (totals for 18 files)




More information about the bittorrent mailing list