[bittorrent] gd79-05-04.89120.fob.walker-scotton-miller.sbeok.t-flac16

Automated Mailer noreply-bt.e at etree.org
Tue May 24 06:37:21 MDT 2011


Band:           Grateful Dead
Torrent Name:   gd79-05-04.89120.fob.walker-scotton-miller.sbeok.t-flac16
Uploaded by:    germain
DB Link:        http://db.etree.org/shn/89120
Details:        http://bt.etree.org/details.php?id=545129

Contact the seeder at http://db.etree.org/germain

If the link to this show does not work, it was probably removed for
being non-trade-friendly.

Description / text file:
-------------------------
This is a tagged version of shid: 89120

Grateful Dead  
May 4, 1979
Hampton Coliseum  
Hampton, VA
gd79-05-04.fob.walker-scotton-miller.89120.sbeok.flac16

Recording Info:
(FOB) Sony ECM-250 -> Cassette Master (Sony TC-158/Maxell UDXL-II90)

Transfer Info:
Cassette Master (Nakamichi DR-1) -> Sound Devices 744T (24bit/96k) ->
Samplitude Professional v9.12 -> FLAC/16
(3 Discs Audio / 2 Discs FLAC)

All Transfers and Mastering By Charlie Miller
charliemiller87 at earthlink.net
December 17, 2007

Patch Info:
Nakamichi 700 -> Cassette Master -> Dat -> CD (shnid=18878) supplies:
Bertha (2:36 - 2:44)
Drums (3:19 - 3:37)

Notes:
-- Set 2 is seamless
-- No Encore played
-- Recorded By Joani Walker
-- Thanks to Joani Walker and Paul Scotton for the tapes
-- Patch source recorded by Robert Wagner and Barry Glassberg
-- Patch source pitch adjusted to match Joani's tape
_________________________________________________________________________

--Set 1--
101-d1t01 - Tuning
102-d1t02 - Mississippi Half-Step Uptown Toodeloo ->
103-d1t03 - Franklin's Tower
104-d1t04 - Mama Tried ->
105-d1t05 - Mexicali Blues
106-d1t06 - Candyman
107-d1t07 - Lazy Lightnin' ->
108-d1t08 - Supplication
109-d1t09 - Loser
110-d1t10 - New Minglewood Blues
111-d1t11 - Don't Ease Me In
112-d1t12 - Passenger

--Set 2--
201-d2t01 - Tuning
202-d2t02 - I Need a Miracle ->
203-d2t03 - Bertha ->
204-d2t04 - Good Lovin'
205-d2t05 - Ship of Fools
206-d3t01 - Estimated Prophet ->
207-d3t02 - Eyes of the World ->
208-d3t03 - Drums ->
209-d3t04 - Space ->
210-d3t05 - Truckin' ->
211-d3t06 - Stella Blue ->
212-d3t07 - Around & Around
_________________________________________________________________________

Tagging notes:
Show information is embedded within the header of each flac file. 
It will display on any player capable of directly playing flac 
files. If converted to wav during processing, all tags will be 
stripped, however audio data will remain unaffected. If you must 
transcode to a lossy format, do so directly Flac > Lossy.
Use  ffp to validate audio integrity.
Md5 values will change if tagging is altered.
B. Proctor 3-25-09
__________________________________________________________________________

SHNTOOL OUTPUT:
    length     expanded size   cdr  WAVE problems filename
     3:54.66       41432876    ---   --   -----   gd79-05-04d1t01.wav
    10:47.06      114144956    ---   --   -----   gd79-05-04d1t02.wav
    13:12.73      139880540    ---   --   -----   gd79-05-04d1t03.wav
     2:38.59       28010012    ---   --   -----   gd79-05-04d1t04.wav
     6:00.68       63663980    ---   --   -----   gd79-05-04d1t05.wav
     8:38.14       91408172    ---   --   -----   gd79-05-04d1t06.wav
     3:29.61       37011116    ---   --   -----   gd79-05-04d1t07.wav
     7:59.39       84587372    ---   --   -----   gd79-05-04d1t08.wav
     8:08.17       86123228    ---   --   -----   gd79-05-04d1t09.wav
     5:34.48       59030540    ---   --   -----   gd79-05-04d1t10.wav
     3:50.66       40727276    ---   --   -----   gd79-05-04d1t11.wav
     5:34.19       58962332    ---   --   -----   gd79-05-04d1t12.wav
     2:44.60       29070764    ---   --   -----   gd79-05-04d2t01.wav
     4:16.52       45280748    ---   --   -----   gd79-05-04d2t02.wav
     6:28.22       68494988    ---   --   -----   gd79-05-04d2t03.wav
     8:09.72       86428988    ---   --   -----   gd79-05-04d2t04.wav
     8:39.30       91622204    ---   --   -----   gd79-05-04d2t05.wav
    12:31.14      132509372    ---   --   -----   gd79-05-04d3t01.wav
    14:39.19      155100332    ---   --   -----   gd79-05-04d3t02.wav
     9:41.23      102542540    ---   --   -----   gd79-05-04d3t03.wav
     4:43.63       50069420    ---   --   -----   gd79-05-04d3t04.wav
     8:11.17       86652428    ---   --   -----   gd79-05-04d3t05.wav
    10:50.16      114697676    ---   --   -----   gd79-05-04d3t06.wav
     7:25.48       78610940    ---   --   -----   gd79-05-04d3t07.wav
   178:11.72     1886062800 B                     (totals for 24 files)




More information about the bittorrent mailing list