[bittorrent] Michael Franti And Spearhead Hangout Music Festival Gulf Shores, Alabama 5/22/2011

Automated Mailer noreply-bt.e at etree.org
Mon May 23 08:50:42 MDT 2011


Band:           Spearhead
Torrent Name:   Michael Franti And Spearhead Hangout Music Festival Gulf Shores, Alabama 5/22/2011
Uploaded by:    zmanatl
DB Link:        
Details:        http://bt.etree.org/details.php?id=545107

Contact the seeder at http://db.etree.org/zmanatl

If the link to this show does not work, it was probably removed for
being non-trade-friendly.

Description / text file:
-------------------------
Michael Franti And Spearhead
Hangout Music Festival
Gulf Shores, Alabama
5/22/2011

Source: I-Clips>Mac Book Pro>Sound Devices 722 (24/48)
DSP: Sound Devices 722>Sound Forge 9.0>CD Wave>flac(16)
Recorded By: Z-Man
Seeded By: Z-Man

Disc I

01 Everyone Deserves Music >
02 Get The Way To You >
03 Rude Boys Back In Town 
04 Hell Hello >
05 Shake It 
06 All I Want Is You
07 Banter
08 Sound Of Sunshine
09 Everybody Ona Move
10 Hey World

Disc II

01 Yes I Will >
02 Yell Fire >
03 Sweet Home Alabama
04 Hey Hey Hey
05 I'll Be Waiting
Encore:
06 Could You Be Loved
07 Never Too Late
08 Say Hey

Flac Fingerprint 

franti2011-05-22d01t01.flac:7c7f1243c81c699d56641e2d0af69ea7
franti2011-05-22d01t02.flac:a33927e12483b6246717323c4f946ea7
franti2011-05-22d01t03.flac:a441e2b805ce75f2a582482e56106488
franti2011-05-22d01t04.flac:0434bec757bee1fea5ad5f1c7957ab5d
franti2011-05-22d01t05.flac:ce2db8a1e4ef5a9c58375dc0d72e6dec
franti2011-05-22d01t06.flac:464b63163ae953e845e74ba6f5e2c7c8
franti2011-05-22d01t07.flac:03ed3f7d22a8d4549a6c1a122da5ac1f
franti2011-05-22d01t08.flac:830e7a7a23d1a73b9345b460a1066c6d
franti2011-05-22d01t09.flac:0933a68e84657329831d1e6764a106db
franti2011-05-22d01t10.flac:c95e232b33094e5a6f016bc5299ae386
franti2011-05-22d02t01.flac:8e2b8641d36e4af69ecaebd36cb1d5cf
franti2011-05-22d02t02.flac:ee63eb371f0ec81e34cd7477886dc4a6
franti2011-05-22d02t03.flac:6ef541182f0c750c9721eef593b35c8c
franti2011-05-22d02t04.flac:e994edc5027d5dc721907f84a6ea3dfb
franti2011-05-22d02t05.flac:c76093094ea436656936b3350f9f995c
franti2011-05-22d02t06.flac:85e46b2143136ac20f8b331847059771
franti2011-05-22d02t07.flac:3e779a7d4a297f0f10e56c27790e3c30
franti2011-05-22d02t08.flac:f32bbeb71f87f09ee3a8279663580574

Shntool 

    length     expanded size    cdr  WAVE problems  fmt   ratio  filename
     3:34.53       37874300 B   ---   --   ---xx   flac  0.2941  franti2011-05-22d01t01.flac
     4:27.62       47244668 B   ---   --   ---xx   flac  0.2915  franti2011-05-22d01t02.flac
     2:50.44       30091532 B   ---   --   ---xx   flac  0.2751  franti2011-05-22d01t03.flac
     5:07.19       54199532 B   ---   --   ---xx   flac  0.2751  franti2011-05-22d01t04.flac
     5:01.31       53169356 B   ---   --   ---xx   flac  0.2745  franti2011-05-22d01t05.flac
     5:06.07       53994908 B   ---   --   ---xx   flac  0.2582  franti2011-05-22d01t06.flac
     1:52.38       19846220 B   ---   --   ---xx   flac  0.2361  franti2011-05-22d01t07.flac
     6:58.12       73763468 B   ---   --   ---xx   flac  0.2750  franti2011-05-22d01t08.flac
     4:39.45       49321484 B   ---   --   ---xx   flac  0.2977  franti2011-05-22d01t09.flac
     7:24.69       78483932 B   ---   --   ---xx   flac  0.2567  franti2011-05-22d01t10.flac
     4:44.59       50236412 B   ---   --   ---xx   flac  0.2801  franti2011-05-22d02t01.flac
     3:26.15       36373724 B   ---   --   ---xx   flac  0.2908  franti2011-05-22d02t02.flac
     1:55.18       20328380 B   ---   --   ---xx   flac  0.2832  franti2011-05-22d02t03.flac
     5:59.22       63379388 B   ---   --   ---xx   flac  0.2751  franti2011-05-22d02t04.flac
     7:44.59       81988412 B   ---   --   ---xx   flac  0.2903  franti2011-05-22d02t05.flac
     4:40.11       49417916 B   ---   --   ---xx   flac  0.2908  franti2011-05-22d02t06.flac
     6:44.07       71282108 B   ---   --   ---xx   flac  0.2734  franti2011-05-22d02t07.flac
     8:05.71       85721036 B   ---   --   ---xx   flac  0.2774  franti2011-05-22d02t08.flac
    90:23.42      956716776 B                            0.2777  (18 files)





More information about the bittorrent mailing list