[bittorrent] Galactic Hangout Music Festival Gulf Shores, Alabama 5/22/2011

Automated Mailer noreply-bt.e at etree.org
Sun May 22 22:26:26 MDT 2011


Band:           Galactic
Torrent Name:   Galactic Hangout Music Festival Gulf Shores, Alabama 5/22/2011
Uploaded by:    zmanatl
DB Link:        
Details:        http://bt.etree.org/details.php?id=545099

Contact the seeder at http://db.etree.org/zmanatl

If the link to this show does not work, it was probably removed for
being non-trade-friendly.

Description / text file:
-------------------------
Galactic
Hangout Music Festival
Gulf Shores, Alabama
5/22/2011

Source: I-Clips>Mac Book Pro>Sound Devices 722 (24/48)
DSP: Sound Devices 722>Sound Forge 9.0>CD Wave>flac(16)
Recorded By: Z-Man
Seeded By: Z-Man

Disc I

01 *?
02 *#?
03 *#? 
04 *? 
05 *?
06 *#?
07 *#Night People  
08 *?
09 *?
10 *#Total Destruction To Your Mind
11 *#Heart Of Steel >
12 *#How Many More Times 

* With Corey Henry Of The Rebirth Brass Band On Trombone
# With Corey Glover Of Living Color On Vocals

Flac Fingerprint 

galactic2011-05-22d01t01.flac:8c30256a9be3a91714070945643bdc35
galactic2011-05-22d01t02.flac:d54fc5a5a323d3573a6eecce48521ee9
galactic2011-05-22d01t03.flac:fb2c6c4cc89abb6123ebdf31444240b2
galactic2011-05-22d01t04.flac:a3d0e3015db0de474a84c3006593e4ad
galactic2011-05-22d01t05.flac:75f231cfbe06015013be7b6676773fc3
galactic2011-05-22d01t06.flac:362a87e96713c9e1f47e812844fdc84b
galactic2011-05-22d01t07.flac:c0f7f2e0ac7e4421929e16e12b5d9e15
galactic2011-05-22d01t08.flac:ec87e8973511512a628684826f8ce143
galactic2011-05-22d01t09.flac:af86c01f4f6d4d8d1e321e9ce7173106
galactic2011-05-22d01t10.flac:ebd20133ca6e9835efac6c518a95b24b
galactic2011-05-22d01t11.flac:7302ed965329e254d7958e7e32ecc6a1
galactic2011-05-22d01t12.flac:e35b2ab189d28c5b6194b3fe6f345b6f

Shntool 

    length     expanded size    cdr  WAVE problems  fmt   ratio  filename
     7:55.21       83839436 B   ---   --   ---xx   flac  0.2848  galactic2011-05-22d01t01.flac
     6:41.35       70818764 B   ---   --   ---xx   flac  0.2930  galactic2011-05-22d01t02.flac
     4:06.24       43450892 B   ---   --   ---xx   flac  0.3083  galactic2011-05-22d01t03.flac
     7:27.21       78900236 B   ---   --   ---xx   flac  0.2956  galactic2011-05-22d01t04.flac
     7:58.69       84481532 B   ---   --   ---xx   flac  0.2819  galactic2011-05-22d01t05.flac
     4:30.34       47708012 B   ---   --   ---xx   flac  0.2997  galactic2011-05-22d01t06.flac
     5:03.45       53555084 B   ---   --   ---xx   flac  0.2969  galactic2011-05-22d01t07.flac
     6:23.01       67563596 B   ---   --   ---xx   flac  0.2917  galactic2011-05-22d01t08.flac
     5:43.29       60573452 B   ---   --   ---xx   flac  0.2889  galactic2011-05-22d01t09.flac
     4:25.12       46774268 B   ---   --   ---xx   flac  0.3194  galactic2011-05-22d01t10.flac
     5:43.44       60608732 B   ---   --   ---xx   flac  0.3085  galactic2011-05-22d01t11.flac
     7:38.40       80885324 B   ---   --   ---xx   flac  0.2985  galactic2011-05-22d01t12.flac
    73:37.00      779159328 B                            0.2956  (12 files)




More information about the bittorrent mailing list