[bittorrent] furthur2011-03-26.b+k.t-bone

Automated Mailer noreply-bt.e at etree.org
Sun May 22 18:17:10 MDT 2011


Band:           Furthur
Torrent Name:   furthur2011-03-26.b+k.t-bone
Uploaded by:    nfagdtrfb
DB Link:        
Details:        http://bt.etree.org/details.php?id=545096

Contact the seeder at http://db.etree.org/nfagdtrfb

If the link to this show does not work, it was probably removed for
being non-trade-friendly.

Description / text file:
-------------------------
FURTHUR
Radio City Music Hall
New York NY
03-26-2011

Disc One - First Set

01 announcement
02 tuning
03 Golden Road
04 Viola Lee Blues
05 Alligator
06 Minglewood Blues
07 Sittin' on Top of the World
08 Alice D Millionaire
09 Cream Puff War
10 Turn on Your Lovelight

Disc Two - Second Set

01 Playin' in the Band
02 Born Cross Eyed
03 Dark Star
04 Eclipse
05 Mountains of the Moon
06 Dark Star
07 Terrapin Suite

Disc Three - Second Set Continued

01 Stella Blue
02 Help on the Way
03 Slipknot
04 Franklin's Tower
05 Donor Rap
06 One More Saturday Night

Source: B+K's 4021's > PSP3 > Marantz PMD-620.
Recording and transfer to CDR by T-Bone.
CDR > EAC > TLH > FLAC 1644 tagged.

    length     expanded size    cdr  WAVE problems  fmt   ratio  filename
     0:04.46         813836 B   ---   --   ---xx   flac  0.3749  furthur2011-03-26d1t01.flac
     2:47.49       29574092 B   ---   --   ---xx   flac  0.3822  furthur2011-03-26d1t02.flac
     5:20.66       56603276 B   ---   --   ---xx   flac  0.5291  furthur2011-03-26d1t03.flac
     8:20.27       88263548 B   ---   --   ---xx   flac  0.5109  furthur2011-03-26d1t04.flac
     8:08.39       86174972 B   ---   --   ---xx   flac  0.4858  furthur2011-03-26d1t05.flac
     8:17.51       87790796 B   ---   --   ---xx   flac  0.4963  furthur2011-03-26d1t06.flac
     7:06.14       75179372 B   ---   --   ---xx   flac  0.4581  furthur2011-03-26d1t07.flac
     5:21.27       56687948 B   ---   --   ---xx   flac  0.4873  furthur2011-03-26d1t08.flac
     3:37.31       38351756 B   ---   --   ---xx   flac  0.4932  furthur2011-03-26d1t09.flac
     9:01.32       95507708 B   ---   --   ---xx   flac  0.4745  furthur2011-03-26d1t10.flac
    15:52.20      167979884 B   ---   --   ---xx   flac  0.4478  furthur2011-03-26d2t01.flac
     7:34.01       80087996 B   ---   --   ---xx   flac  0.4584  furthur2011-03-26d2t02.flac
     8:31.72       90309788 B   ---   --   ---xx   flac  0.4446  furthur2011-03-26d2t03.flac
     5:12.27       55100348 B   ---   --   ---xx   flac  0.4715  furthur2011-03-26d2t04.flac
    17:28.50      184984844 B   ---   --   ---xx   flac  0.4531  furthur2011-03-26d2t05.flac
     2:56.18       31088780 B   ---   --   ---xx   flac  0.4657  furthur2011-03-26d2t06.flac
    21:44.68      230185580 B   ---   --   ---xx   flac  0.4852  furthur2011-03-26d2t07.flac
    10:44.17      113641628 B   ---   --   ---xx   flac  0.4367  furthur2011-03-26d3t01.flac
     4:38.45       49145084 B   ---   --   ---xx   flac  0.4868  furthur2011-03-26d3t02.flac
     5:54.34       62525612 B   ---   --   ---xx   flac  0.4928  furthur2011-03-26d3t03.flac
     7:55.31       83862956 B   ---   --   ---xx   flac  0.4957  furthur2011-03-26d3t04.flac
     1:03.10       11136764 B   ---   --   ---xx   flac  0.3981  furthur2011-03-26d3t05.flac
     6:01.35       63762764 B   ---   --   ---xx   flac  0.5161  furthur2011-03-26d3t06.flac
   173:43.60     1838759332 B                            0.4730  (23 files)

No errors occured.




More information about the bittorrent mailing list