[bittorrent] Jazz Is Dead Variety Playhouse Atlanta, Georgia 1-30-1998 (Digital Soundboard)

Automated Mailer noreply-bt.e at etree.org
Sun May 22 13:23:32 MDT 2011


Band:           Other
Torrent Name:   Jazz Is Dead Variety Playhouse Atlanta, Georgia 1-30-1998 (Digital Soundboard)
Uploaded by:    zmanatl
DB Link:        
Details:        http://bt.etree.org/details.php?id=545090

Contact the seeder at http://db.etree.org/zmanatl

If the link to this show does not work, it was probably removed for
being non-trade-friendly.

Description / text file:
-------------------------
Jazz Is Dead
Variety Playhouse
Atlanta, Georgia
1/30/1998

Source: Digital Soundboard>Tascam DAP1>>Sound Devices 722 (24/48)
DSP: Sound Devices 722>Sound Forge 9.0>CD Wave>flac(16)
Recorded By: Z-Man
Seeded By: Z-Man

Disc I 

01 Jam >
02 Dark Star >
03 Help On The Way >
04 Slipknot! >
05 Franklin's Tower
06 Billy Cobham Banter
07 Crazy Fingers
08 Bass Solo >
09 Bass And Drum Solo >
10 Truckin'/Other One Jam >
11  Jam   

Disc II 

01 Band Introductions
02 *China Doll >
03 #Friend Of The Devil 
04 Scarlet Begonias >
05 Drum Solo >
06 King Solomon's Marbles
07 Billy Cobham Banter
08 @Dark Star
09 Band Intoductions

* T.Lavitz Solo
# With Jeff Mosier On Banjo
@ With Merle Saunders On Keyboards

Jimmy Herring - Guitar
T. Lavitz - Keyboards
Billy Cobham - Drums
Alphonso Johnson - Bass

Flac Fingerprint 

jazz1998-01-30d01t01.flac:39a2dd0f2fcbd394044f93c4329147d9
jazz1998-01-30d01t02.flac:fcd84cd56a385865b5b79d60a4a6a649
jazz1998-01-30d01t03.flac:7e3a6498252e3398cfd9d83cc30862cb
jazz1998-01-30d01t04.flac:244fc60d9ac8a0c2f888df5695934df0
jazz1998-01-30d01t05.flac:013ea7b01b6589f659a363e98957d5ea
jazz1998-01-30d01t06.flac:5a9d499f68481321e238ec83efc5f4d7
jazz1998-01-30d01t07.flac:f7062933d1732b300a6c7f63fa2b7bdc
jazz1998-01-30d01t08.flac:8ed77fad8501c2ce4ea2a4e18b506bf7
jazz1998-01-30d01t09.flac:5d35c4863a3b4eff2b60a54fe83bc55f
jazz1998-01-30d01t10.flac:5ffcbf6b6bf335646ff63ec4632ad00c
jazz1998-01-30d01t11.flac:ef00f77edabec7c408f2fda71d71f6f0
jazz1998-01-30d02t01.flac:3ac6ecf48ff4ee643f15e5d82a281c79
jazz1998-01-30d02t02.flac:6f4f924ccf201a9e10f6f20c2d7fb8d1
jazz1998-01-30d02t03.flac:a0079d71b9c5ac4dbfbbf60f0ebf50c6
jazz1998-01-30d02t04.flac:a9fc9588c928f80238e1baf08ad39e03
jazz1998-01-30d02t05.flac:67f51a639f3fbd9322280eabb1677c6a
jazz1998-01-30d02t06.flac:a04762eb5d58b2defd2ef95886c78afe
jazz1998-01-30d02t07.flac:80de42d501d91eb94e381e8b1fd661b6
jazz1998-01-30d02t08.flac:73c3d3a608fed5dafb9d9606b16aae81
jazz1998-01-30d02t09.flac:a3161f380d2e4afb1b61f88de83e2c4f

Shntool 

    length     expanded size    cdr  WAVE problems  fmt   ratio  filename
     7:01.12       74292668 B   ---   --   ---xx   flac  0.4646  jazz1998-01-30d01t01.flac
     1:44.42       18444428 B   ---   --   ---xx   flac  0.5216  jazz1998-01-30d01t02.flac
     4:12.64       44603372 B   ---   --   ---xx   flac  0.5524  jazz1998-01-30d01t03.flac
     4:24.39       46661372 B   ---   --   ---xx   flac  0.5492  jazz1998-01-30d01t04.flac
     4:19.10       45711164 B   ---   --   ---xx   flac  0.5576  jazz1998-01-30d01t05.flac
     1:20.51       14231996 B   ---   --   ---xx   flac  0.3575  jazz1998-01-30d01t06.flac
     9:08.26       96728396 B   ---   --   ---xx   flac  0.4773  jazz1998-01-30d01t07.flac
     3:00.31       31824956 B   ---   --   ---xx   flac  0.3309  jazz1998-01-30d01t08.flac
     4:47.34       50706812 B   ---   --   ---xx   flac  0.3947  jazz1998-01-30d01t09.flac
    11:15.49      119185292 B   ---   --   ---xx   flac  0.4973  jazz1998-01-30d01t10.flac
    12:09.43      128696780 B   ---   --   ---xx   flac  0.4631  jazz1998-01-30d01t11.flac
     0:56.31        9951356 B   ---   --   ---xx   flac  0.3516  jazz1998-01-30d02t01.flac
     3:19.04       35113052 B   ---   --   ---xx   flac  0.3704  jazz1998-01-30d02t02.flac
     3:40.36       38892716 B   ---   --   ---xx   flac  0.3990  jazz1998-01-30d02t03.flac
     4:51.57       51466508 B   ---   --   ---xx   flac  0.5064  jazz1998-01-30d02t04.flac
     8:27.37       89521868 B   ---   --   ---xx   flac  0.4294  jazz1998-01-30d02t05.flac
     7:50.22       82959788 B   ---   --   ---xx   flac  0.5209  jazz1998-01-30d02t06.flac
     1:09.70       12336284 B   ---   --   ---xx   flac  0.3381  jazz1998-01-30d02t07.flac
    15:14.15      161264924 B   ---   --   ---xx   flac  0.4435  jazz1998-01-30d02t08.flac
     0:36.07        6366908 B   ---   --   ---xx   flac  0.3622  jazz1998-01-30d02t09.flac
   109:30.05     1158960640 B                            0.4645  (20 files)





More information about the bittorrent mailing list