[bittorrent] gd1979-10-28.nak300.morrone.xxxxxx.flac1644

Automated Mailer noreply-bt.e at etree.org
Sun May 22 12:40:57 MDT 2011


Band:           Grateful Dead
Torrent Name:   gd1979-10-28.nak300.morrone.xxxxxx.flac1644
Uploaded by:    nfagdtrfb
DB Link:        
Details:        http://bt.etree.org/details.php?id=545087

Contact the seeder at http://db.etree.org/nfagdtrfb

If the link to this show does not work, it was probably removed for
being non-trade-friendly.

Description / text file:
-------------------------
GRATEFUL DEAD
Cape Cod Coliseum
South Yarmouth MA
10-28-1979

16bit/44.1kHz file-set

s1t01 crowd & tuning
s1t02 Mississippi Half Step >
s1t03 Franklin's Tower
s1t04 Mama Tried >
s1t05 Mexicali Blues
s1t06 crowd & tuning
s1t07 Althea
s1t08 Passenger
s1t09 Ramble on Rose
s1t10 Music Never Stopped

s2t01 crowd & tuning
s2t02 China Cat Sunflower >
s2t03 I Know You Rider
s2t04 Samson & Delilah
s2t05 Ship of Fools
s2t06 crowd & tuning
s2t07 Playin' in the Band >
s2t08 Drums >
s2t09 Space >
s2t10 Stella Blue >
s2t11 Sugar Magnolia
s2t12 crowd & tuning
s2t13 Encore: U.S. Blues

AUD: 3x Nakamichi CM300/CP1's > patched thru Nakamichi 550 > 
Sony TC-153SD > Maxell UDXLII's, set up directly behind the 
soundboard, taped by Joe Morrone.

Transfer: MAC > Nakamichi CR5A > Edirol FA-66 > Wavelab 2448 > 
R8Brain > CD-Wave > TLH > FLAC 1644 Tagged. Transfer by Andrew F. 
05/2011

Notes: Aprx five seconds static at start of Samson. Twenty-five 
second patch (upsampled) from ID-19590, Drums 4:48 > Space 0:13. 
CDR's: D1 s1t01 > s1t10, D2 s2t01 > s2t05, D3 s2t06 > s2t13.

    length     expanded size    cdr  WAVE problems  fmt   ratio  filename
     3:07.14       33019772 B   ---   --   ---xx   flac  0.5904  gd1979-10-28s1t01.flac
    13:24.10      141849164 B   ---   --   ---xx   flac  0.6250  gd1979-10-28s1t02.flac
    19:06.64      202304972 B   ---   --   ---xx   flac  0.6186  gd1979-10-28s1t03.flac
     2:33.73       27160940 B   ---   --   ---xx   flac  0.6199  gd1979-10-28s1t04.flac
     4:27.56       47230556 B   ---   --   ---xx   flac  0.6245  gd1979-10-28s1t05.flac
     2:38.68       28031180 B   ---   --   ---xx   flac  0.5437  gd1979-10-28s1t06.flac
     9:25.40       99760124 B   ---   --   ---xx   flac  0.5899  gd1979-10-28s1t07.flac
     6:05.37       64473068 B   ---   --   ---xx   flac  0.6198  gd1979-10-28s1t08.flac
     8:51.45       93774284 B   ---   --   ---xx   flac  0.5941  gd1979-10-28s1t09.flac
     9:55.73      105129740 B   ---   --   ---xx   flac  0.6265  gd1979-10-28s1t10.flac
     1:45.00       18522044 B   ---   --   ---xx   flac  0.5695  gd1979-10-28s2t01.flac
     7:12.01       76207196 B   ---   --   ---xx   flac  0.6394  gd1979-10-28s2t02.flac
     9:19.52       98729948 B   ---   --   ---xx   flac  0.6481  gd1979-10-28s2t03.flac
     9:23.59       99452012 B   ---   --   ---xx   flac  0.6270  gd1979-10-28s2t04.flac
     7:47.18       82421180 B   ---   --   ---xx   flac  0.5823  gd1979-10-28s2t05.flac
     3:40.28       38873900 B   ---   --   ---xx   flac  0.5451  gd1979-10-28s2t06.flac
    19:27.44      205962332 B   ---   --   ---xx   flac  0.6182  gd1979-10-28s2t07.flac
     5:00.07       52936508 B   ---   --   ---xx   flac  0.6077  gd1979-10-28s2t08.flac
     4:34.52       48455948 B   ---   --   ---xx   flac  0.5496  gd1979-10-28s2t09.flac
     8:29.29       89855852 B   ---   --   ---xx   flac  0.5761  gd1979-10-28s2t10.flac
     8:36.08       91041260 B   ---   --   ---xx   flac  0.6442  gd1979-10-28s2t11.flac
     0:51.05        9008204 B   ---   --   ---xx   flac  0.5789  gd1979-10-28s2t12.flac
     5:34.06       58931756 B   ---   --   ---xx   flac  0.6432  gd1979-10-28s2t13.flac
   171:18.39     1813131940 B                            0.6121  (23 files)

No errors occured.




More information about the bittorrent mailing list