[bittorrent] gd1979-10-28.nak300.morrone.xxxxx.flac2448

Automated Mailer noreply-bt.e at etree.org
Sun May 22 12:38:35 MDT 2011


Band:           Grateful Dead
Torrent Name:   gd1979-10-28.nak300.morrone.xxxxx.flac2448
Uploaded by:    nfagdtrfb
DB Link:        
Details:        http://bt.etree.org/details.php?id=545086

Contact the seeder at http://db.etree.org/nfagdtrfb

If the link to this show does not work, it was probably removed for
being non-trade-friendly.

Description / text file:
-------------------------
GRATEFUL DEAD
Cape Cod Coliseum
South Yarmouth MA
10-28-1979

24bit/48kHz file-set

s1t01 crowd & tuning
s1t02 Mississippi Half Step >
s1t03 Franklin's Tower
s1t04 Mama Tried >
s1t05 Mexicali Blues
s1t06 crowd & tuning
s1t07 Althea
s1t08 Passenger
s1t09 Ramble on Rose
s1t10 Music Never Stopped

s2t01 crowd & tuning
s2t02 China Cat Sunflower >
s2t03 I Know You Rider
s2t04 Samson & Delilah
s2t05 Ship of Fools
s2t06 crowd & tuning
s2t07 Playin' in the Band >
s2t08 Drums >
s2t09 Space >
s2t10 Stella Blue >
s2t11 Sugar Magnolia
s2t12 crowd & tuning
s2t13 Encore: U.S. Blues

AUD: 3x Nakamichi CM300/CP1's > patched thru Nakamichi 550 > 
Sony TC-153SD > Maxell UDXLII's, set up directly behind the 
soundboard, taped by Joe Morrone.

Transfer: MAC > Nakamichi CR5A > Edirol FA-66 > Wavelab 2448 > 
CD-Wave > TLH > FLAC 2448 Tagged. Transfer by Andrew F. 05/2011

Notes: Aprx five seconds static at start of Samson. Twenty-five 
second patch (upsampled) from ID-19590, Drums 4:48 > Space 0:13.

04c92e076f1aa707b0ec0201e5726e87 *gd1979-10-28s1t01.flac
f0fb0d2e338c94d159d65a21851c930a *gd1979-10-28s1t02.flac
58c2ab46d37888c78917b7faf9d01153 *gd1979-10-28s1t03.flac
48c0d1f0ef1a3e62decfd80f2d59da9e *gd1979-10-28s1t04.flac
741a1fdbc705a83e6b780ae68814597a *gd1979-10-28s1t05.flac
04f6fcfeb99f17da55e0f01f0304a2b3 *gd1979-10-28s1t06.flac
0162177d0b1f0f86fd8911131338e237 *gd1979-10-28s1t07.flac
8dc655b80f8d8ad674aebdb72a002cb6 *gd1979-10-28s1t08.flac
15c85c22ad57404404fa32dd9e62318b *gd1979-10-28s1t09.flac
0da41b6b86941b728ace155adc090d36 *gd1979-10-28s1t10.flac
81f1d361b9dc750fcf871bfdddc99e65 *gd1979-10-28s2t01.flac
380cc20246a5731daa1524743570fa69 *gd1979-10-28s2t02.flac
6ed1ef7df0038d007c9c6f85af8ff7d3 *gd1979-10-28s2t03.flac
a26f3caec502023ff3e74b81940d8912 *gd1979-10-28s2t04.flac
cb74e9ec90a48a022a2378b46531a46f *gd1979-10-28s2t05.flac
f444932fac92e77998af24d9e4dcd925 *gd1979-10-28s2t06.flac
79439b055f8b56f8a3c541b63a703fd1 *gd1979-10-28s2t07.flac
8d9a6ccf4113c32d64a8c09bbdaccc2f *gd1979-10-28s2t08.flac
c63873f045cab9ea4ba3b51c49e60d20 *gd1979-10-28s2t09.flac
305be31dcf85449b5b16e520d0e74b17 *gd1979-10-28s2t10.flac
f170a9e75903bb346f7ca5a48d7798d2 *gd1979-10-28s2t11.flac
18719fcf2c8eb9559bb1f9f9005cea97 *gd1979-10-28s2t12.flac
1ec4aff8cfcf6b9dab90ffb34835088b *gd1979-10-28s2t13.flac

gd1979-10-28s1t01.flac:f6bf4b71281d43582943ca34aa549737
gd1979-10-28s1t02.flac:7f88377f07824db2bf92ab30926e1549
gd1979-10-28s1t03.flac:d2386cd531e93851b1f1734fa5eac9f9
gd1979-10-28s1t04.flac:f4d6472ca29ce931bce54c72be96a8b2
gd1979-10-28s1t05.flac:760607068957608bdf97f4e15aa5c8b0
gd1979-10-28s1t06.flac:ebe4227bc1ca8f44f0c113f8143046eb
gd1979-10-28s1t07.flac:2a07741800721bd3212fb28cbcf07470
gd1979-10-28s1t08.flac:eba10478c49166118abeb25f774f75bb
gd1979-10-28s1t09.flac:977d6f892745afac84cf5d344bf833af
gd1979-10-28s1t10.flac:ce56a3aed4f36dbca6bfd4120b594289
gd1979-10-28s2t01.flac:966b898e4e088413505a21160050d4f2
gd1979-10-28s2t02.flac:b94f13abd5fbe448d297e1644233bbd3
gd1979-10-28s2t03.flac:5dbc979228af0a3c37b79d6c2212b384
gd1979-10-28s2t04.flac:aa52a1818928d3e406530def0e44d338
gd1979-10-28s2t05.flac:80c6126af24d0b9a163eb0d8bc343268
gd1979-10-28s2t06.flac:f98175baa887da02caa29a3b9df596a5
gd1979-10-28s2t07.flac:6c9c0228121cc650fff6d4da2450b585
gd1979-10-28s2t08.flac:72fbdfc3b354f6c511c29266ee3e1d18
gd1979-10-28s2t09.flac:a3b4daa6dffd050a2891270a208aaefe
gd1979-10-28s2t10.flac:7aa87bedcbdb1533cb0c6a52fba5dfb5
gd1979-10-28s2t11.flac:78526d481503e58eea4de03aede96653
gd1979-10-28s2t12.flac:b3895a0093cbcd837d5bcfd0c98f9858
gd1979-10-28s2t13.flac:1f6de99c415378eb14d86f5ce8380f13

    length     expanded size    cdr  WAVE problems  fmt   ratio  filename
     3:07.173      53905964 B   cxx   --   ---xx   flac  0.7133  gd1979-10-28s1t01.flac
    13:24.160     231598124 B   cxx   --   ---xx   flac  0.7371  gd1979-10-28s1t02.flac
    19:06.840     330289964 B   cxx   --   ---xx   flac  0.7321  gd1979-10-28s1t03.flac
     2:33.973      44344364 B   cxx   --   ---xx   flac  0.7330  gd1979-10-28s1t04.flac
     4:27.733      77107244 B   cxx   --   ---xx   flac  0.7364  gd1979-10-28s1t05.flac
     2:38.907      45765164 B   cxx   --   ---xx   flac  0.6872  gd1979-10-28s1t06.flac
     9:25.547     162877484 B   cxx   --   ---xx   flac  0.7155  gd1979-10-28s1t07.flac
     6:05.493     105262124 B   cxx   --   ---xx   flac  0.7343  gd1979-10-28s1t08.flac
     8:51.600     153100844 B   cxx   --   ---xx   flac  0.7193  gd1979-10-28s1t09.flac
     9:55.966     171638156 B   cxx   --   ---xx   flac  0.7391  gd1979-10-28s1t10.flac
     1:45.000      30240044 B   cxx   --   ---xx   flac  0.7026  gd1979-10-28s2t01.flac
     7:12.013     124419884 B   cxx   --   ---xx   flac  0.7469  gd1979-10-28s2t02.flac
     9:19.693     161191724 B   cxx   --   ---xx   flac  0.7519  gd1979-10-28s2t03.flac
     9:23.787     162370604 B   cxx   --   ---xx   flac  0.7388  gd1979-10-28s2t04.flac
     7:47.240     134565164 B   cxx   --   ---xx   flac  0.7116  gd1979-10-28s2t05.flac
     3:40.373      63467564 B   cxx   --   ---xx   flac  0.6892  gd1979-10-28s2t06.flac
    19:27.573     336261164 B   cxx   --   ---xx   flac  0.7343  gd1979-10-28s2t07.flac
     5:00.107      86430764 B   cxx   --   ---xx   flac  0.7275  gd1979-10-28s2t08.flac
     4:34.693      79111724 B   cxx   --   ---xx   flac  0.6912  gd1979-10-28s2t09.flac
     8:29.400     146707244 B   cxx   --   ---xx   flac  0.7072  gd1979-10-28s2t10.flac
     8:35.973     148600364 B   cxx   --   ---xx   flac  0.7486  gd1979-10-28s2t11.flac
     0:51.160      14734124 B   cxx   --   ---xx   flac  0.7095  gd1979-10-28s2t12.flac
     5:34.098      96220226 B   cxx   --   ---xx   flac  0.7480  gd1979-10-28s2t13.flac
   171:18.504    2960210026 B                            0.7294  (23 files)

No errors occured.




More information about the bittorrent mailing list