[bittorrent] Grateful Dead - 1979-11-24 Golden Hall - San Diego, CA *Matrix*

Automated Mailer noreply-bt.e at etree.org
Sat May 21 19:38:04 MDT 2011


Band:           Grateful Dead
Torrent Name:   Grateful Dead - 1979-11-24 Golden Hall - San Diego, CA *Matrix*
Uploaded by:    hseamons
DB Link:        http://db.etree.org/shn/113741
Details:        http://bt.etree.org/details.php?id=545072

Contact the seeder at http://db.etree.org/hseamons

If the link to this show does not work, it was probably removed for
being non-trade-friendly.

Description / text file:
-------------------------
Grateful Dead
Golden Hall
San Diego, CA
November 24, 1979

Jerry Garcia - Lead Guitar, Vocals
Mickey Hart - Drums
Bill Kreutzmann - Drums
Phil Lesh - Electric Bass, Vocals
Brent Mydland - Keyboards, Vocals
Bob Weir - Rhythm Guitar, Vocals



*Matrix*



-----------------------------------------------------------------
SBD (shnid=113499):

Recording Info:
SBD -> Cassette Master

Transfer Info:
Cassette Master (Tascam 122MKII) -> Sound Devices 744T -> WAV (24bit/96k)

Mastering Info:
WAV (24bit/96k) -> Samplitude Professional v11.2 -> FLAC/16
(3 Discs Audio / 2 Discs FLAC)

All Mastering By Charlie Miller
charliemiller87 at earthlink.net
May 10, 2011

[Cuts:]
Althea (7:25 - 7:54)
Playing In The Band (1:26 - 1:46)
Sugar Magnolia (4:49 - 5:10)

-----------------------------------------------------------------
AUD (shnid=106307):

MOTB Release: 0133 16/44.1
Release Date: 2010-02-26
Band: Grateful Dead
Date: 1979-11-24 (Friday)
Venue: Golden Hall, Community Concourse
Location: San Diego, CA
Analog Audience Source: FOB Master Cassettes (MAC)
Medium Stock Brands: MAC = 2 x Maxell UDXL-II
Analog Lineage: 2 x Nak cm700's >> Sony TC-D5  >> MAC
Analog Sound Preservation: MAC >> Nakamichi CR7a => Korg MR-1000 >> DSF [1-bit 5.6448 MHz Stereo] >> Korg MR-1000 => Korg AudioGate >> WAV [24/96]
Taped By: Bob Menke
Transfer By: Bob Menke
Mastering By: David Minches

[30 second cut during Drums]

-----------------------------------------------------------------
Thank you to Charlie Miller for the SBD transfer,
to Bob Menke for recording the show,
and to Bob Menke and David Minches for the AUD transfer.

Matrix by Jubal H. Seamons using Final Cut Pro (FLAC > AIFF > Final Cut w/EQ > AIFF CD tracking via Audacity > FLAC16 via xACT)
May 21, 2011



Set I
-----
d1t01 - Tuning
d1t02 - China Cat Sunflower ->
d1t03 - I Know You Rider
d1t04 - Mama Tried ->
d1t05 - Mexicali Blues
d1t06 - Peggy-O
d1t07 - Cassidy
d1t08 - Easy To Love You ->
d1t09 - Althea
d1t10 - Passenger

Set II
-----
d2t01 - Tuning
d2t02 - Alabama Getaway ->
d2t03 - Greatest Story Ever Told
d2t04 - Ship Of Fools
d2t05 - Terrapin Station ->
d2t06 - Playing In The Band ->
d2t07 - Drums ->
d3t01 - Space ->
d3t02 - Lost Sailor ->
d3t03 - Saint Of Circumstance ->
d3t04 - Wharf Rat ->
d3t05 - Sugar Magnolia

Encore
------
d3t06 - One More Saturday Night




    length     expanded size    cdr  WAVE problems  fmt   ratio  filename
     1:26.43       15271580 B   ---   --   ---xx  gd79-11-24d1t01.flac
     6:09.29       65159852 B   ---   --   ---xx  gd79-11-24d1t02.flac
     9:34.04      101263052 B   ---   --   ---xx  gd79-11-24d1t03.flac
     2:42.22       28628588 B   ---   --   ---xx  gd79-11-24d1t04.flac
     5:02.32       53348108 B   ---   --   ---xx  gd79-11-24d1t05.flac
     8:25.64       89232572 B   ---   --   ---xx  gd79-11-24d1t06.flac
     5:36.10       59293964 B   ---   --   ---xx  gd79-11-24d1t07.flac
     3:27.41       36611276 B   ---   --   ---xx  gd79-11-24d1t08.flac
    10:19.21      109241036 B   ---   --   ---xx  gd79-11-24d1t09.flac
     5:25.47       57440588 B   ---   --   ---xx  gd79-11-24d1t10.flac
     1:32.19       16273532 B   ---   --   ---xx  gd79-11-24d2t01.flac
     7:21.49       77907692 B   ---   --   ---xx  gd79-11-24d2t02.flac
     6:29.27       68683148 B   ---   --   ---xx  gd79-11-24d2t03.flac
    10:02.43      106293980 B   ---   --   ---xx  gd79-11-24d2t04.flac
    12:31.47      132586988 B   ---   --   ---xx  gd79-11-24d2t05.flac
    14:37.01      154705196 B   ---   --   ---xx  gd79-11-24d2t06.flac
     7:00.36       74172716 B   ---   --   ---xx  gd79-11-24d2t07.flac
     1:46.61       18841916 B   ---   --   ---xx  gd79-11-24d3t01.flac
     6:15.42       66248828 B   ---   --   ---xx  gd79-11-24d3t02.flac
     5:26.73       57678140 B   ---   --   ---xx  gd79-11-24d3t03.flac
     9:35.70      101594684 B   ---   --   ---xx  gd79-11-24d3t04.flac
     9:13.19       97593932 B   ---   --   ---xx  gd79-11-24d3t05.flac
     5:22.07       56817308 B   ---   --   ---xx  gd79-11-24d3t06.flac
   155:24.57     1644888676 B                            0.6081  (23 files)



More information about the bittorrent mailing list