[bittorrent] Widespread Panic Hangout Music Festival Gulf Shores, Alabama 5/20/2011

Automated Mailer noreply-bt.e at etree.org
Sat May 21 09:22:28 MDT 2011


Band:           Widespread Panic
Torrent Name:   Widespread Panic Hangout Music Festival Gulf Shores, Alabama 5/20/2011
Uploaded by:    zmanatl
DB Link:        
Details:        http://bt.etree.org/details.php?id=545057

Contact the seeder at http://db.etree.org/zmanatl

If the link to this show does not work, it was probably removed for
being non-trade-friendly.

Description / text file:
-------------------------
Widespread Panic
Hangout Music Festival
Gulf Shores, Alabama
5/20/2011

Source: I-Clips>Mac Book Pro>Sound Devices 722 (24/48)
DSP: Sound Devices 722>Sound Forge 9.0>CD Wave>flac(16)
Recorded By: Z-Man
Seeded By: Z-Man

Disc I 

01 Tuning/Greeting
02 Pigeons >
03 Bust It Big >
04 Mr. Soul
05 Cotton Was King
06 True To My Nature
07 Ain't Life Grand >
08 Who Do You Belong To?
09 *Ride Me High >
10 *Stop Breakin' Down

Disc II 

01 Surprise Valley >
02 Drum Solo >
03 Surprise Valley >
04 Jam >
05 Blue Indian >
06 St. Ex >
07 You Should Be Glad 
08 Fairies Wear Boots >
09 Drivin' Song >
10 Blight >
11 Drivin' Song >
12 North 

* With Warren Haynes On Guitar

This Is The Webcast. I Figured It Would Be Better Than Nothing Until Someone Uploads A Source. 
Between Songs You Can Hear The Wind Blowing On The Stage Mics, But Very Listenable.

Flac Fingerprint 

wsp2011-05-20d01t01.flac:ff5c884250093cd98147cd4c1048e47a
wsp2011-05-20d01t02.flac:efff383978491b9822964817038e768c
wsp2011-05-20d01t03.flac:a008ee56eb71e83bf233989f1354ab2d
wsp2011-05-20d01t04.flac:f6d39195ee05cd208673651e1377c31b
wsp2011-05-20d01t05.flac:7ca4b6aa33f7a689988171a44f77382b
wsp2011-05-20d01t06.flac:9f919bc47c1de8b3e7bea72481ef16f6
wsp2011-05-20d01t07.flac:b33bd8d7ad4ef276b3dbc965443eda7e
wsp2011-05-20d01t08.flac:d681058281b4bec6680b15ee727c739d
wsp2011-05-20d01t09.flac:77e9379c83042358ba4c833e89203407
wsp2011-05-20d01t10.flac:6a7eb0e6dc2615491370380e22e45fd8
wsp2011-05-20d02t01.flac:50c83b63a3c77949cb13748b636f4466
wsp2011-05-20d02t02.flac:7ee8e366b965a73293fc4242ef65a0a0
wsp2011-05-20d02t03.flac:e59340dd147a0ca25570332f1215bc1a
wsp2011-05-20d02t04.flac:044d7119cff1a821b82756d29d26d7fb
wsp2011-05-20d02t05.flac:264c82cab01ff0865fc3517e1c5343f4
wsp2011-05-20d02t06.flac:0ecf43aa9dfe76bc289e45a37dfef9c2
wsp2011-05-20d02t07.flac:73a0550f61f2b54b7fef181480b44fb1
wsp2011-05-20d02t08.flac:44c945d8df866c6ef7738ecf4111cd6a
wsp2011-05-20d02t09.flac:b2f261401d9000b1348f4e6ff24c4041
wsp2011-05-20d02t10.flac:35cd6f1203459e813901baac5a1cdf3a
wsp2011-05-20d02t11.flac:33aa3e679273f75d6e2e35f5e2205080
wsp2011-05-20d02t12.flac:7624370be5ad29c45789d3a3eba99d83

Shntool 

    length     expanded size    cdr  WAVE problems  fmt   ratio  filename
     0:41.24        7288892 B   ---   --   ---xx   flac  0.4690  wsp2011-05-20d01t01.flac
     8:32.60       90457964 B   ---   --   ---xx   flac  0.5188  wsp2011-05-20d01t02.flac
     7:34.51       80205596 B   ---   --   ---xx   flac  0.5205  wsp2011-05-20d01t03.flac
     4:35.08       48528860 B   ---   --   ---xx   flac  0.5230  wsp2011-05-20d01t04.flac
     6:13.56       65928956 B   ---   --   ---xx   flac  0.5052  wsp2011-05-20d01t05.flac
     3:58.18       42025580 B   ---   --   ---xx   flac  0.5115  wsp2011-05-20d01t06.flac
     4:15.54       45109052 B   ---   --   ---xx   flac  0.5126  wsp2011-05-20d01t07.flac
     6:37.71       70197836 B   ---   --   ---xx   flac  0.4869  wsp2011-05-20d01t08.flac
    12:56.11      136912316 B   ---   --   ---xx   flac  0.5117  wsp2011-05-20d01t09.flac
     6:45.19       71486732 B   ---   --   ---xx   flac  0.5159  wsp2011-05-20d01t10.flac
     6:05.41       64482476 B   ---   --   ---xx   flac  0.5240  wsp2011-05-20d02t01.flac
     5:51.11       61942316 B   ---   --   ---xx   flac  0.4999  wsp2011-05-20d02t02.flac
     2:10.24       22988492 B   ---   --   ---xx   flac  0.5367  wsp2011-05-20d02t03.flac
     2:07.05       22414604 B   ---   --   ---xx   flac  0.5072  wsp2011-05-20d02t04.flac
     5:24.18       57195980 B   ---   --   ---xx   flac  0.4878  wsp2011-05-20d02t05.flac
     6:35.55       69807404 B   ---   --   ---xx   flac  0.4955  wsp2011-05-20d02t06.flac
    12:18.13      130213820 B   ---   --   ---xx   flac  0.5299  wsp2011-05-20d02t07.flac
    10:35.63      112162220 B   ---   --   ---xx   flac  0.5300  wsp2011-05-20d02t08.flac
     4:20.74       46038092 B   ---   --   ---xx   flac  0.5206  wsp2011-05-20d02t09.flac
     8:30.72       90133388 B   ---   --   ---xx   flac  0.5080  wsp2011-05-20d02t10.flac
     2:32.02       26817548 B   ---   --   ---xx   flac  0.5176  wsp2011-05-20d02t11.flac
     6:09.02       65096348 B   ---   --   ---xx   flac  0.5516  wsp2011-05-20d02t12.flac
   134:52.02     1427434472 B                            0.5152  (22 files)





More information about the bittorrent mailing list