[bittorrent] ph1989-05-20: Nothfield Mt. Hermon School Northfield MA::[SBD]SHNfamily TiPh Companion] set1

Automated Mailer noreply-bt.e at etree.org
Fri May 20 07:01:44 MDT 2011


Band:           Phish
Torrent Name:   ph1989-05-20: Nothfield Mt. Hermon School Northfield MA::[SBD]SHNfamily TiPh Companion] set1
Uploaded by:    shnfamily
DB Link:        
Details:        http://bt.etree.org/details.php?id=545040

Contact the seeder at http://db.etree.org/shnfamily

If the link to this show does not work, it was probably removed for
being non-trade-friendly.

Description / text file:
-------------------------
Phish - 5/20/89 Set I
Northfield Mt. Hermon School - Northfield, MA 

Source: SBD> Cass/X (recorded ?/94)

Transfer: Dennon DRW-840> Sony r500> Audiophile 2496> Samplitude 5.5 at 44.1> WAV> FLAC on 6/14/05 by EEE

Disc 1 / Set I : 68:11
1. AC/DC Bag
2. Alumni Blues
3. You Enjoy Myself
4. Lizards*
5. Wil\\son*#
6. Divided Sky*
7. I Didn't Know
8. Possum 
*with Gamehendge narration
#tape flip

SHNTOOL OUTPUT

    length     expanded size   cdr  WAVE problems filename
     4:40.56       49523756    ---   --   -----   ph1989-05-20s1d1t01.wav
     5:33.39       58832972    ---   --   -----   ph1989-05-20s1d1t02.wav
    16:04.42      170148428    ---   --   -----   ph1989-05-20s1d1t03.wav
    11:06.70      117647084    ---   --   -----   ph1989-05-20s1d1t04.wav
     5:19.08       56290460    ---   --   -----   ph1989-05-20s1d1t05.wav
    13:12.60      139849964    ---   --   -----   ph1989-05-20s1d1t06.wav
     3:38.08       38474060    ---   --   -----   ph1989-05-20s1d1t07.wav
     8:24.64       89056172    ---   --   -----   ph1989-05-20s1d1t08.wav
     0:11.24        1996892    ---   --   -----   ph1989-05-20s1d1t09.wav
    68:11.71      721819788 B                     (totals for 9 files, 1.0000 ov
erall compression ratio)



More information about the bittorrent mailing list