[bittorrent] Adam Ezra Group Brooklyn Bowl Brooklyn, New York 5/17/2011 (Schoeps CCM4V'S FOB)

Automated Mailer noreply-bt.e at etree.org
Wed May 18 06:45:37 MDT 2011


Band:           Other
Torrent Name:   Adam Ezra Group Brooklyn Bowl Brooklyn, New York 5/17/2011 (Schoeps CCM4V'S FOB)
Uploaded by:    zmanatl
DB Link:        
Details:        http://bt.etree.org/details.php?id=544989

Contact the seeder at http://db.etree.org/zmanatl

If the link to this show does not work, it was probably removed for
being non-trade-friendly.

Description / text file:
-------------------------
Adam Ezra Group
Brooklyn Bowl
Brooklyn, New York, New York
5/17/2011

Source: Schoeps CCM4V'S(din)>Lunatec V2>Benchmark AD2K>
Sound Devices 722 (24/48)
FOB/DFC/KFC/ZFC/AARP 45' From Stage, 7' High
DSP: Sound Devices 722>Sound Forge 9.0>CD Wave>flac(16)
Recorded By: Z-Man
Seeded By: Z-Man

Disc I 

01 Greeting
02 ? >
03 ?
04 ?
05 *#?
06 @?
07 Banter
08 ?

* With Dirk From Rusted Root 
# With Preach From Rusted Root 
@ With Colter From Rusted Root On Guitar

Flac Fingerprint 

adamezra2011-05-17d01t01.flac:227721b6c79acb3e31843e766f9690e8
adamezra2011-05-17d01t02.flac:a2fdefc14ed5a7045cd2ff0529076de3
adamezra2011-05-17d01t03.flac:4d7c11d6dbe3c1a166b4a26cbe7f0ea7
adamezra2011-05-17d01t04.flac:f8b0ff1faa308cdf81809771e6fa4ddb
adamezra2011-05-17d01t05.flac:b0d055b33e80355b8c810718570c3c87
adamezra2011-05-17d01t06.flac:7ebbd3273d1135b305d9f2a670952f84
adamezra2011-05-17d01t07.flac:77a41c89dc81f241968811374061b407
adamezra2011-05-17d01t08.flac:2c25fa516fcf94234b585d5f6fd50172

Shntool 

    length     expanded size    cdr  WAVE problems  fmt   ratio  filename
     0:20.12        3556268 B   ---   --   ---xx   flac  0.4480  adamezra2011-05-17d01t01.flac
     4:12.08       44471660 B   ---   --   ---xx   flac  0.5754  adamezra2011-05-17d01t02.flac
     7:18.58       77399660 B   ---   --   ---xx   flac  0.6057  adamezra2011-05-17d01t03.flac
     5:15.29       55634252 B   ---   --   ---xx   flac  0.5488  adamezra2011-05-17d01t04.flac
     7:55.64       83940572 B   ---   --   ---xx   flac  0.6034  adamezra2011-05-17d01t05.flac
     8:44.69       92595932 B   ---   --   ---xx   flac  0.5778  adamezra2011-05-17d01t06.flac
     1:33.01       16407596 B   ---   --   ---xx   flac  0.5044  adamezra2011-05-17d01t07.flac
     6:14.58       66110060 B   ---   --   ---xx   flac  0.6039  adamezra2011-05-17d01t08.flac
    41:34.74      440116000 B                            0.5838  (8 files)




More information about the bittorrent mailing list