[bittorrent] Rusted Root Brooklyn Bowl Brooklyn, New York 5/17/2011 (Schoeps CCM4V'S FOB)

Automated Mailer noreply-bt.e at etree.org
Wed May 18 00:13:57 MDT 2011


Band:           Rusted Root
Torrent Name:   Rusted Root Brooklyn Bowl Brooklyn, New York 5/17/2011 (Schoeps CCM4V'S FOB)
Uploaded by:    zmanatl
DB Link:        
Details:        http://bt.etree.org/details.php?id=544986

Contact the seeder at http://db.etree.org/zmanatl

If the link to this show does not work, it was probably removed for
being non-trade-friendly.

Description / text file:
-------------------------
Rusted Root
Brooklyn Bowl
Brooklyn, New York, New York
5/17/2011

Source: Schoeps CCM4V'S(din)>Lunatec V2>Benchmark AD2K>
Sound Devices 722 (24/48)
FOB/DFC/KFC/ZFC/AARP 45' From Stage, 7' High
DSP: Sound Devices 722>Sound Forge 9.0>CD Wave>flac(16)
Recorded By: Z-Man
Seeded By: Z-Man

Disc I 

01 Weary
02 Dance In The Middle
03 Voodoo >
04 Suspicious Minds
05 Back To The Earth >
06 Martyr
07 Monkey Pants
08 Animals
09 Food And Creative Love
10 Drivin' >
11 ? >
12 ? >
13 Cinnamon Girl

Disc II 

01 Grace
02 Send Me On My Way
03 Lost 
04 Cover Me Up
05 Laugh At The Sun
Encore:
06 Thanks
07 Sun And Magic 
08 *Drum Solo >
09 *Ecstasy 

* With Turtle From Adam Ezra Group On Percussion

Flac Fingerprint 

rustedroot2011-05-17d01t01.flac:8a9ed6a1f8f0a43cd67cd96b4df24d8d
rustedroot2011-05-17d01t02.flac:a22cc3eafa6c7b4c44889b667921a16a
rustedroot2011-05-17d01t03.flac:c581e79cc88297760b1f13e53308609a
rustedroot2011-05-17d01t04.flac:174968160cd1d0c7bf26b5c5d1b4e56b
rustedroot2011-05-17d01t05.flac:6fee414309845d27ff2207fc9448fbd8
rustedroot2011-05-17d01t06.flac:154256d3c39aa9f0109be009df6dc0ce
rustedroot2011-05-17d01t07.flac:5e6d639723bf08721b429530ff709357
rustedroot2011-05-17d01t08.flac:36067f93f47ec148e53c12d14f2e308c
rustedroot2011-05-17d01t09.flac:29a76690dfb7a6325666996b7e0b0204
rustedroot2011-05-17d01t10.flac:1122aa9dbcd66fca765a2b4941427973
rustedroot2011-05-17d01t11.flac:18034d804bf0843755d09b1aface9a11
rustedroot2011-05-17d01t12.flac:21983c7dfbddaa12cb4071bfa6a8e227
rustedroot2011-05-17d01t13.flac:16261e82d58fc144e76359bd9802cadd
rustedroot2011-05-17d02t01.flac:bae98864cf88ff721f9ed4b57445e102
rustedroot2011-05-17d02t02.flac:7526863f51c82f5e94043b8e1605f71c
rustedroot2011-05-17d02t03.flac:5dc842c4d905e1fea791db2d3d2e82ff
rustedroot2011-05-17d02t04.flac:b3d31b8c67f4d23ad29cfb6f40848f33
rustedroot2011-05-17d02t05.flac:79abc986f3e2bb8cd0e8a35ea01f86e4
rustedroot2011-05-17d02t06.flac:40cd4ec881bcfd5555924c58c16b140f
rustedroot2011-05-17d02t07.flac:fdd581add87e7e63c9b8fb3a781a4cf6
rustedroot2011-05-17d02t08.flac:1698a0e20145a1a70c99329b42b57df9
rustedroot2011-05-17d02t09.flac:e3c6f32cd98c5f272fd182ed7e7027b5

Shntool 

    length     expanded size    cdr  WAVE problems  fmt   ratio  filename
     4:21.43       46141580 B   ---   --   ---xx   flac  0.4820  rustedroot2011-05-17d01t01.flac
     5:05.51       53921996 B   ---   --   ---xx   flac  0.5755  rustedroot2011-05-17d01t02.flac
     7:34.10       80109164 B   ---   --   ---xx   flac  0.5855  rustedroot2011-05-17d01t03.flac
     5:26.06       57520556 B   ---   --   ---xx   flac  0.5228  rustedroot2011-05-17d01t04.flac
     6:29.02       68624348 B   ---   --   ---xx   flac  0.5223  rustedroot2011-05-17d01t05.flac
     6:59.09       73932812 B   ---   --   ---xx   flac  0.5562  rustedroot2011-05-17d01t06.flac
     4:07.57       43704908 B   ---   --   ---xx   flac  0.5696  rustedroot2011-05-17d01t07.flac
     5:07.19       54199532 B   ---   --   ---xx   flac  0.5743  rustedroot2011-05-17d01t08.flac
     3:42.59       39299612 B   ---   --   ---xx   flac  0.5365  rustedroot2011-05-17d01t09.flac
     2:36.08       27537260 B   ---   --   ---xx   flac  0.5449  rustedroot2011-05-17d01t10.flac
     4:52.24       51565292 B   ---   --   ---xx   flac  0.4727  rustedroot2011-05-17d01t11.flac
     1:59.64       21142172 B   ---   --   ---xx   flac  0.5793  rustedroot2011-05-17d01t12.flac
     3:34.70       37914284 B   ---   --   ---xx   flac  0.5672  rustedroot2011-05-17d01t13.flac
     7:18.60       77404364 B   ---   --   ---xx   flac  0.4782  rustedroot2011-05-17d02t01.flac
     7:55.69       83952332 B   ---   --   ---xx   flac  0.5518  rustedroot2011-05-17d02t02.flac
     6:12.40       65714924 B   ---   --   ---xx   flac  0.5534  rustedroot2011-05-17d02t03.flac
     4:01.00       42512444 B   ---   --   ---xx   flac  0.5098  rustedroot2011-05-17d02t04.flac
     8:57.55       94856204 B   ---   --   ---xx   flac  0.5560  rustedroot2011-05-17d02t05.flac
     0:39.39        6971372 B   ---   --   ---xx   flac  0.4003  rustedroot2011-05-17d02t06.flac
     6:09.12       65119868 B   ---   --   ---xx   flac  0.5207  rustedroot2011-05-17d02t07.flac
     2:36.27       27581948 B   ---   --   ---xx   flac  0.5096  rustedroot2011-05-17d02t08.flac
    10:53.30      115259804 B   ---   --   ---xx   flac  0.5942  rustedroot2011-05-17d02t09.flac
   116:41.04     1234986776 B                            0.5432  (22 files)









More information about the bittorrent mailing list