[bittorrent] Taylor Hicks Band City Winery New York City, New York 5/15/2011 (Schoeps CCM4V'S FOB)

Automated Mailer noreply-bt.e at etree.org
Mon May 16 00:24:40 MDT 2011


Band:           Other
Torrent Name:   Taylor Hicks Band City Winery New York City, New York 5/15/2011 (Schoeps CCM4V'S FOB)
Uploaded by:    zmanatl
DB Link:        
Details:        http://bt.etree.org/details.php?id=544946

Contact the seeder at http://db.etree.org/zmanatl

If the link to this show does not work, it was probably removed for
being non-trade-friendly.

Description / text file:
-------------------------
Taylor Hicks Band
City Winery
New York City, New York
5/15/2011

Source: Schoeps CCM4V'S(din)>Lunatec V2>Benchmark AD2K>
Sound Devices 722 (24/48)
FOB/DLFC/KFC/ZFC/AARP 70' 19' From Stage, 7' High
DSP: Sound Devices 722>Sound Forge 9.0>CD Wave>flac(16)
Recorded By: Z-Man
Seeded By: Z-Man

Disc I 

01 Announcement
02 Wine Announcement/Introduction
03 Compared To What
04 The Deal
05 Back To Louisiana
06 What's Right Is Right
07 Hold On To Your Love
08 Maybe You Should
09 My City Was Gone
10 The Maze 

Disc II 

01 Banter
02 Nineteen (With Dixie Riffs)
03 Battlefield
04 *Why Can't We Live Together
05 Seven Mile Breakdown >
06 Runnin' On Empty >
07 Valley Road >
08 Seven Mike Breakdown
Encore:
09 Banter
10 #Alabama State Of Mind 
11 *Naked In The Jungle

* With Jamie McLean On Guitar
# Acoustic Four Piece

Flac Fingerprint 

thb2011-05-15d01t01.flac:0a090e12e9b0c9ab06ef7ff69181da86
thb2011-05-15d01t02.flac:0dcaa3e4c965fe61338835d26cab1cee
thb2011-05-15d01t03.flac:7d95185b2f3cde49e815e4201d3abfc7
thb2011-05-15d01t04.flac:d8bbbf700645d3350a79bd7ef0e71c70
thb2011-05-15d01t05.flac:78201e0fdfda17bda200645a34d988ad
thb2011-05-15d01t06.flac:aa99ee71b01c100d39b9fcb4e176f9e2
thb2011-05-15d01t07.flac:783503f2d059de22a659c28d42e28a8d
thb2011-05-15d01t08.flac:be2168c50203afc24f0c2e57a45cc35f
thb2011-05-15d01t09.flac:836dd07107cd4b14cd775cc6107f54cc
thb2011-05-15d01t10.flac:0adbd183e26b4e8928513aa639ae110b
thb2011-05-15d02t01.flac:3c60f108ed59812c83b628aa6dfd7d32
thb2011-05-15d02t02.flac:47e7efdf10476a403240494251ee65b8
thb2011-05-15d02t03.flac:f605567e7027c2112e9d9b55b3fbad6c
thb2011-05-15d02t04.flac:f972133cede39dbef46778c8e38d4e7d
thb2011-05-15d02t05.flac:1548b6359d3e6b53f612d3ae55ce6bc2
thb2011-05-15d02t06.flac:f645a5f8f88b172fcda2dfd76cce9e06
thb2011-05-15d02t07.flac:ba709fb782ba2bf8f54b3d55465edc92
thb2011-05-15d02t08.flac:3afe4b11c8670a8318c4cecb4467e44f
thb2011-05-15d02t09.flac:d8861475ee9a569f69082484ce86099e
thb2011-05-15d02t10.flac:0b61d6a8ad50eec3dafb6ac9bae36765
thb2011-05-15d02t11.flac:4f5146fa2e0da611c9a50c802e4668b4

Shntool 

    length     expanded size    cdr  WAVE problems  fmt   ratio  filename
     0:17.73        3170540 B   ---   --   ---xx   flac  0.4354  thb2011-05-15d01t01.flac
     1:34.26       16642796 B   ---   --   ---xx   flac  0.4482  thb2011-05-15d01t02.flac
     6:56.40       73476524 B   ---   --   ---xx   flac  0.4922  thb2011-05-15d01t03.flac
     4:19.69       45849932 B   ---   --   ---xx   flac  0.4783  thb2011-05-15d01t04.flac
     5:41.73       60324140 B   ---   --   ---xx   flac  0.5039  thb2011-05-15d01t05.flac
     6:12.25       65679644 B   ---   --   ---xx   flac  0.4374  thb2011-05-15d01t06.flac
    11:36.52      122896748 B   ---   --   ---xx   flac  0.4481  thb2011-05-15d01t07.flac
     4:48.35       50885564 B   ---   --   ---xx   flac  0.3635  thb2011-05-15d01t08.flac
     7:47.51       82498796 B   ---   --   ---xx   flac  0.5590  thb2011-05-15d01t09.flac
     5:17.55       56048204 B   ---   --   ---xx   flac  0.5156  thb2011-05-15d01t10.flac
     1:18.24       13815692 B   ---   --   ---xx   flac  0.3494  thb2011-05-15d02t01.flac
     6:15.58       66286460 B   ---   --   ---xx   flac  0.4421  thb2011-05-15d02t02.flac
     7:37.55       80744204 B   ---   --   ---xx   flac  0.4523  thb2011-05-15d02t03.flac
     9:22.08       99155660 B   ---   --   ---xx   flac  0.4696  thb2011-05-15d02t04.flac
     5:51.61       62059916 B   ---   --   ---xx   flac  0.4257  thb2011-05-15d02t05.flac
     2:10.34       23012012 B   ---   --   ---xx   flac  0.4155  thb2011-05-15d02t06.flac
     0:57.10       10078364 B   ---   --   ---xx   flac  0.4058  thb2011-05-15d02t07.flac
     3:50.09       40593212 B   ---   --   ---xx   flac  0.5854  thb2011-05-15d02t08.flac
     2:06.71       22393436 B   ---   --   ---xx   flac  0.3391  thb2011-05-15d02t09.flac
     8:45.65       92762924 B   ---   --   ---xx   flac  0.3473  thb2011-05-15d02t10.flac
    11:49.53      125192300 B   ---   --   ---xx   flac  0.5381  thb2011-05-15d02t11.flac
   114:39.47     1213567068 B                            0.4638  (21 files)









More information about the bittorrent mailing list