[bittorrent] Dark Star Orchestra House Of Blues Boston, Massachusetts 5/12/2011 (Schoeps CCM4V'S)

Automated Mailer noreply-bt.e at etree.org
Fri May 13 00:59:46 MDT 2011


Band:           Dark Star Orchestra
Torrent Name:   Dark Star Orchestra House Of Blues Boston, Massachusetts 5/12/2011 (Schoeps CCM4V'S)
Uploaded by:    zmanatl
DB Link:        
Details:        http://bt.etree.org/details.php?id=544862

Contact the seeder at http://db.etree.org/zmanatl

If the link to this show does not work, it was probably removed for
being non-trade-friendly.

Description / text file:
-------------------------
Dark Star Orchestra
House Of Blues
Boston, Massachusetts
5/12/2011

Source: Schoeps CCM4V'S(din)>Lunatec V2>Benchmark AD2K>
Sound Devices 722 (24/48)
BOB/DFC/KFC/ZFC/AARP 70' From Stage, 7 1/2' High
DSP: Sound Devices 722>Sound Forge 9.0>CD Wave>flac(16)
Recorded By: Z-Man
Seeded By: Z-Man

Disc I 1st Set

01 Tuning 
02 Women Are Smarter
03 Mississippi Half-Step >
04 CC Rider
05 Doin' That Rag
06 Blow Away
07 Lazy Lightnin' >
08 Supplication
09 *I'll Be With Thee

Disc II 1st Set Con't

01 Mama Tried >
02 Me & My Uncle
03 Tangled Up In Blue
2nd Set:
04 Tuning
05 Hell In A Bucket 
06 I'll Take A Melody
07 Truckin' >
08 Fire On The Mountain >

Disc III 2nd Set Con't

01 Drum Solo >
02 Space >
03 I Need A Miracle >
04 Dear Mr. Fantasy >
05 Death Don't Have No Mercy >
06 Good Lovin'
Encore:
07 Thanks/Banter
08 Ruben And Cherise

* With Jennifer Markard Past Member Of The Zen Tricksters On Vocals

# Show Notes: Tonight's Show Was Not a Replication Of An Actual
Grateful Dead Show. It Was A Made Up Setlist.

Flac Fingerprint 

dso2011-05-12d01t01.flac:94440f454fc16c4699c3b62c23b796ac
dso2011-05-12d01t02.flac:4000b7e39b31359dff1521c0c8065499
dso2011-05-12d01t03.flac:5b93ba9d7872076eff093a8e1d41a071
dso2011-05-12d01t04.flac:72b7b13221fa55bdd2748131cb0091ab
dso2011-05-12d01t05.flac:8b646d709454c2dd3e2d10c6fb24c70f
dso2011-05-12d01t06.flac:20f555cf85a1124bbada2b2dbd2d0c10
dso2011-05-12d01t07.flac:b42c1151585592c36bdd62459e7d55ed
dso2011-05-12d01t08.flac:21050fbc254233ec3824876cea8ebb72
dso2011-05-12d01t09.flac:fc2cba0bff264a83e801e06a541f3517
dso2011-05-12d02t01.flac:e368a4374b6e67b69a54491026455800
dso2011-05-12d02t02.flac:94149b143272f9aca8336212f050f5a2
dso2011-05-12d02t03.flac:85512ec3b57b8fa4f5add43471a31bb0
dso2011-05-12d02t04.flac:e68823b2e3b6ed6507c84cf2af41b1be
dso2011-05-12d02t05.flac:e985ed1b54f5701ab52370129af81d66
dso2011-05-12d02t06.flac:8ba9752ba1f603a263b3f39ee822543c
dso2011-05-12d02t07.flac:eae71699a588c34f24193488e1a12866
dso2011-05-12d02t08.flac:a24df096fbea401c681bd9312e9a0416
dso2011-05-12d03t01.flac:c03a5e2ea808c5c3aaa147aa2a4127fa
dso2011-05-12d03t02.flac:aa31606bed12a724aeff8c20f7c073f5
dso2011-05-12d03t03.flac:4ed2455ee27e5c70c6ac4642a18250d8
dso2011-05-12d03t04.flac:955a40d88b50fd81aaf19a50858105be
dso2011-05-12d03t05.flac:9e7c218eb540d2222f97f0888c3316fc
dso2011-05-12d03t06.flac:4bcfe52104e4d05730374753732b4354
dso2011-05-12d03t07.flac:923854ebcb24397901b60f537ec06356
dso2011-05-12d03t08.flac:69640c28ba503084ba699ca82590f626

Shntool 

    length     expanded size    cdr  WAVE problems  fmt   ratio  filename
     0:44.17        7801628 B   ---   --   ---xx   flac  0.4292  dso2011-05-12d01t01.flac
    11:01.62      116746268 B   ---   --   ---xx   flac  0.4576  dso2011-05-12d01t02.flac
    11:32.30      122139404 B   ---   --   ---xx   flac  0.4850  dso2011-05-12d01t03.flac
     9:16.22       98130188 B   ---   --   ---xx   flac  0.4787  dso2011-05-12d01t04.flac
     8:15.39       87409772 B   ---   --   ---xx   flac  0.4478  dso2011-05-12d01t05.flac
     8:26.72       89427788 B   ---   --   ---xx   flac  0.5031  dso2011-05-12d01t06.flac
    10:12.71      108123836 B   ---   --   ---xx   flac  0.5038  dso2011-05-12d01t07.flac
     3:57.10       41830364 B   ---   --   ---xx   flac  0.4577  dso2011-05-12d01t08.flac
     6:00.43       63605180 B   ---   --   ---xx   flac  0.4691  dso2011-05-12d01t09.flac
     2:50.28       30053900 B   ---   --   ---xx   flac  0.4854  dso2011-05-12d02t01.flac
     5:39.72       59968988 B   ---   --   ---xx   flac  0.4744  dso2011-05-12d02t02.flac
    14:32.14      153853772 B   ---   --   ---xx   flac  0.5188  dso2011-05-12d02t03.flac
     0:28.54        5066252 B   ---   --   ---xx   flac  0.3243  dso2011-05-12d02t04.flac
     8:50.13       93522620 B   ---   --   ---xx   flac  0.5036  dso2011-05-12d02t05.flac
    16:39.11      176249516 B   ---   --   ---xx   flac  0.4452  dso2011-05-12d02t06.flac
    10:19.62      109337468 B   ---   --   ---xx   flac  0.4867  dso2011-05-12d02t07.flac
    14:58.44      158510732 B   ---   --   ---xx   flac  0.4952  dso2011-05-12d02t08.flac
     9:12.54       97499852 B   ---   --   ---xx   flac  0.4470  dso2011-05-12d03t01.flac
     3:59.30       42230204 B   ---   --   ---xx   flac  0.3289  dso2011-05-12d03t02.flac
     4:23.16       46430876 B   ---   --   ---xx   flac  0.4981  dso2011-05-12d03t03.flac
     6:21.42       67307228 B   ---   --   ---xx   flac  0.4859  dso2011-05-12d03t04.flac
    12:18.38      130272620 B   ---   --   ---xx   flac  0.4304  dso2011-05-12d03t05.flac
     8:04.14       85410572 B   ---   --   ---xx   flac  0.5077  dso2011-05-12d03t06.flac
     1:10.25       12406844 B   ---   --   ---xx   flac  0.3189  dso2011-05-12d03t07.flac
     9:05.06       96152156 B   ---   --   ---xx   flac  0.4698  dso2011-05-12d03t08.flac
   198:21.64     2099488028 B                            0.4735  (25 files)








More information about the bittorrent mailing list