[bittorrent] Keller Williams 2011-05-07 Matinee (kids show) & Evening (WMDS show)

Automated Mailer noreply-bt.e at etree.org
Tue May 10 16:24:53 MDT 2011


Band:           Keller Williams
Torrent Name:   Keller Williams 2011-05-07 Matinee (kids show) & Evening (WMDS show)
Uploaded by:    rowjimmy
DB Link:        
Details:        http://bt.etree.org/details.php?id=544797

Contact the seeder at http://db.etree.org/rowjimmy

If the link to this show does not work, it was probably removed for
being non-trade-friendly.

Description / text file:
-------------------------
Keller played a series of shows in his hometown of Fredericksburg, VA to benefit the Cobblestone Children's Museum of Fredericksburg (http://www.cobblestonechildrensmuseum.org)
On 5/7 he played a Matinee show for kids and an evening show featuring the WMDS for the grownups. Here are both of those.

------------------------------
Keller Williams
2011-05-07
Fredericksburg Field House
Fredericksburg, VA

Kid's Matinee Concert
Benefit for the Cobblestone Children's Museum of Fredericksburg
http://www.cobblestonechildrensmuseum.org

Superlux SMK-H8K/H > KindKables Black Stealths > Busman T-Mod FR2LE > .wav (24bit/48kHz)
Minor Edits (Fades, DC Offset Removal) via WaveLab
Tracking via CDWave > Flac Level 8
Recording & Post by rowjimmy (http://www.rowjimmy.com)


01. Mama Tooted*
02. Taking a Bath
03. Grandma's Feather Bed
04. Car Seat
05. Neighbor is Happy Again
06. Soakie Von Soakerman
07. Because I Said So**
08. Party in the USA
09. Horseback Rider
10. Keep it on the Paper
11. Hey Little Baby
12. Lucy Lawcy
13. Freeker by the Speaker*
14. Hulahoop To Da Loop^
15. When the Saints Go Marching In^^


*  with confetti cannons
** with balloon drop
^  With hula-hoopers on stage
^^ Outro Horn Parade w/Scott Sunn on sax, Keller on trombone, & Lou on trumpet



SHNTool Output:
    length     expanded size    cdr  WAVE problems  fmt   ratio  filename
     3:08.08       33182060 B   ---   --   ---xx   flac  0.4871  kw2011-05-07as01t01.flac
     2:22.18       25091180 B   ---   --   ---xx   flac  0.5275  kw2011-05-07as01t02.flac
     4:22.13       46247420 B   ---   --   ---xx   flac  0.5383  kw2011-05-07as01t03.flac
     2:24.33       25479260 B   ---   --   ---xx   flac  0.5146  kw2011-05-07as01t04.flac
     1:43.59       18308012 B   ---   --   ---xx   flac  0.5052  kw2011-05-07as01t05.flac
     2:34.66       27320876 B   ---   --   ---xx   flac  0.5195  kw2011-05-07as01t06.flac
     8:53.28       94087100 B   ---   --   ---xx   flac  0.5548  kw2011-05-07as01t07.flac
     5:58.58       63287660 B   ---   --   ---xx   flac  0.5540  kw2011-05-07as01t08.flac
     0:44.46        7869836 B   ---   --   ---xx   flac  0.5073  kw2011-05-07as01t09.flac
     3:08.64       33313772 B   ---   --   ---xx   flac  0.5385  kw2011-05-07as01t10.flac
     2:53.28       30583100 B   ---   --   ---xx   flac  0.5471  kw2011-05-07as01t11.flac
     2:34.49       27280892 B   ---   --   ---xx   flac  0.5445  kw2011-05-07as01t12.flac
     7:57.25       84201644 B   ---   --   ---xx   flac  0.5533  kw2011-05-07as01t13.flac
     3:58.23       42037340 B   ---   --   ---xx   flac  0.5193  kw2011-05-07as01t14.flac
     1:25.29       15062252 B   ---   --   ---xx   flac  0.4734  kw2011-05-07as01t15.flac
    54:10.22      573352404 B                            0.5358  (15 files)





----------------------------------

Keller Williams with Keith Moseley, Gibb Droll & Jeff Sipe (WMDS)
2011-05-07
Fredericksburg Field House
Fredericksburg, VA

A benefit for the Cobblestone Children's Museum of Fredericksburg
http://cobblestonechildrensmuseum.org/

Superlux SMK-H8K/H > KindKables Black Stealths > Busman T-Mod FR2LE > .wav (24bit/48kHz)
Minor Edits (Fades, DC Offset Removal) via WaveLab
Dither/Resample to 16bit/44.1khz with Voxengo R8brain
Tracking via CDWave > Flac Level 8
Recording & Post by rowjimmy (http://www.rowjimmy.com)



Set 1

01. Intro Jam > Thin Mint
02. Apparition
03. Groove Of The Storm
04. Cornpone Sally and Her Hay Bailing Wagon Wheels >
05. Kiwi & The Apricot
06. Alligator Alley
07. Once In A Lifetime
08. Ophelia*
09. Play This
10. Little Wing**
11. Gallivanting >
12. The Other One >
13. Bird Song >
14. The Other One >
15. Gallivanting

Set 2

01. Newness***
02. Brown Eyed Women
03. Turn Indifference
04. I Dig A Pony
05. New Horizons
06. Same Ol'
07. The Juggler >
08. Breathe >
09. The Juggler
10. Fuel For The Road

Encore
11. Women Are Smarter^ 


*  Keith Moseley on Lead Vox
** Gibb Droll on Lead Vox
*** with Hey Little Baby jam
^  Intro with full band playing perc. on Sipe's kit


SHNTool Output:
    length     expanded size    cdr  WAVE problems  fmt   ratio  filename
     7:08.53       75623900 B   ---   --   ---xx   flac  0.4755  kw2011-05-07bs1t01.flac
    11:02.18      116819180 B   ---   --   ---xx   flac  0.5270  kw2011-05-07bs1t02.flac
     3:48.66       40374476 B   ---   --   ---xx   flac  0.5036  kw2011-05-07bs1t03.flac
     3:21.68       35616380 B   ---   --   ---xx   flac  0.5502  kw2011-05-07bs1t04.flac
     5:19.73       56443340 B   ---   --   ---xx   flac  0.5287  kw2011-05-07bs1t05.flac
     4:33.55       48286604 B   ---   --   ---xx   flac  0.5213  kw2011-05-07bs1t06.flac
     9:50.03      104083100 B   ---   --   ---xx   flac  0.5433  kw2011-05-07bs1t07.flac
     3:31.38       37309820 B   ---   --   ---xx   flac  0.5491  kw2011-05-07bs1t08.flac
     4:36.50       48804044 B   ---   --   ---xx   flac  0.5577  kw2011-05-07bs1t09.flac
     6:24.60       67878764 B   ---   --   ---xx   flac  0.4960  kw2011-05-07bs1t10.flac
     2:39.17       28087628 B   ---   --   ---xx   flac  0.5186  kw2011-05-07bs1t11.flac
     2:46.02       29287148 B   ---   --   ---xx   flac  0.5702  kw2011-05-07bs1t12.flac
     9:56.44      105237932 B   ---   --   ---xx   flac  0.5050  kw2011-05-07bs1t13.flac
     1:27.44       15450332 B   ---   --   ---xx   flac  0.5483  kw2011-05-07bs1t14.flac
     2:56.29       31114652 B   ---   --   ---xx   flac  0.5043  kw2011-05-07bs1t15.flac
     5:45.64       61008572 B   ---   --   ---xx   flac  0.4997  kw2011-05-07bs2t01.flac
     5:50.19       61784732 B   ---   --   ---xx   flac  0.5092  kw2011-05-07bs2t02.flac
    10:40.19      112940732 B   ---   --   ---xx   flac  0.4977  kw2011-05-07bs2t03.flac
     4:17.09       45356012 B   ---   --   ---xx   flac  0.5283  kw2011-05-07bs2t04.flac
     5:12.17       55076828 B   ---   --   ---xx   flac  0.5334  kw2011-05-07bs2t05.flac
     6:37.51       70150796 B   ---   --   ---xx   flac  0.4935  kw2011-05-07bs2t06.flac
     3:48.39       40310972 B   ---   --   ---xx   flac  0.4720  kw2011-05-07bs2t07.flac
    10:50.48      114772940 B   ---   --   ---xx   flac  0.5103  kw2011-05-07bs2t08.flac
     1:28.74       15697292 B   ---   --   ---xx   flac  0.5347  kw2011-05-07bs2t09.flac
     7:51.26       83145596 B   ---   --   ---xx   flac  0.5174  kw2011-05-07bs2t10.flac
    10:39.62      112865468 B   ---   --   ---xx   flac  0.4907  kw2011-05-07bs2t11.flac
   152:26.73     1613527240 B                            0.5141  (26 files)









More information about the bittorrent mailing list