[bittorrent] jg1979-xx-xx.interview-klein

Automated Mailer noreply-bt.e at etree.org
Mon May 9 20:42:24 MDT 2011


Band:           Garcia
Torrent Name:   jg1979-xx-xx.interview-klein
Uploaded by:    nfagdtrfb
DB Link:        
Details:        http://bt.etree.org/details.php?id=544779

Contact the seeder at http://db.etree.org/nfagdtrfb

If the link to this show does not work, it was probably removed for
being non-trade-friendly.

Description / text file:
-------------------------
JERRY GARCIA
Interview
The Robert Klein Radio Show
xx-xx-1979

01 Klein intro, GD spontaneity, The 60's vs 70's, intro to Good Lovin'
02 LSD, Hell's Angels, JG's first guitar, commercial break
03 Dragon shoes, GD band name history, GD vs JG solo, intro to Casey Jones
04 Solo projects, Family, GD as talk show hosts, Klein outro

Notes: The Robert Klein Radio Show program was taped in front of a live audience 
at RCA Studios in NYC. This episode featured Jerry, plus Clive Davis and Michael 
Palin as guests, and apparently aired on or around 06/10/1979. Reconstruction was 
on tour in California at that time, so this show was likely pre-recorded earlier 
in the year when GD were on the east coast. Thanks to Tim Friend for this tape.

    length     expanded size    cdr  WAVE problems  fmt   ratio  filename
     2:51.37       30251468 B   ---   --   ---xx   flac  0.4838  jg1979-xx-xx.interview-klein.t01.flac
     2:43.12       28781468 B   ---   --   ---xx   flac  0.5110  jg1979-xx-xx.interview-klein.t02.flac
     3:51.00       40748444 B   ---   --   ---xx   flac  0.5174  jg1979-xx-xx.interview-klein.t03.flac
     2:05.06       22064156 B   ---   --   ---xx   flac  0.5123  jg1979-xx-xx.interview-klein.t04.flac
    11:30.55      121845536 B                            0.5066  (4 files)

No errors occured.




More information about the bittorrent mailing list