[bittorrent] String Cheese Incident 1998-02-23 Durango, CO with Paul McCandless *barely circulated*

Automated Mailer noreply-bt.e at etree.org
Sun May 8 22:15:02 MDT 2011


Band:           String Cheese Incident
Torrent Name:   String Cheese Incident 1998-02-23 Durango, CO with Paul McCandless *barely circulated*
Uploaded by:    annapurna1228
DB Link:        
Details:        http://bt.etree.org/details.php?id=544752

Contact the seeder at http://db.etree.org/annapurna1228

If the link to this show does not work, it was probably removed for
being non-trade-friendly.

Description / text file:
-------------------------
String Cheese Incident
Monday, February 23, 1998
Diamond Circle Theatre
Durango, Colorado

Source: SBD > DAT > CDR
Lineage: CDR > EAC > Flac 16
Tagging: Flacs tagged with Foobar2000 Live Show Tagger

Set 1:
d1t01 - Lonesome Fiddle Blues
d1t02 - +Boogie On Reggae Woman
d1t03 - +Big Sciota
d1t04 - +MLT
d1t05 - Another Night
d2t01 - The Joker->
d2t02 - Eat My Dust->
d2t03 - +Bubblehouse Jam->
d2t04 - +Bigger Isn't Better->
d2t05 - +You Can Call Me Al Jam->
d2t06 - +San Jose

Set 2:
d2t07 - Set 2 Intro
d2t08 - Got What He Wanted->
d2t09 - Salt Creek
d2t10 - chatter
d2t11 - +Come As You Are
d3t01 - +Galactic
d3t02 - +Wake Up->
d3t03 - Lester Had a Coconut->
d3t04 - Drums->
d3t05 - +Texas->
d3t06 - +Reggae Jam->
d3t07 - +I Know You Rider
Encore:
xxxxx - Low Rider Jam->	<<<Missing>>>
xxxxx - Johnny Cash	<<<Missing>>>

d1: (38:29)
d2: (71:00)
d3: (66:49)

Guests:
+ with Paul McCandless - saxophones, flute, woodwinds

Lineup:
- Bill Nershi - guitars, vocals
- Michael Kang - mandolin, violin, vocals
- Michael Travis - drums, vocals
- Keith Moseley - bass, vocals
- Kyle Hollingsworth - keyboards, vocals

Notes:
-- The very start of Lonesome Fiddle Blues fades in.  Very little is missing.
-- Kang's brief attempt at the lyrics to You Can Call Me Al are quickly aborted
-- The end of Salt Creek is cut badly.  Some music is missing.
-- Encores are missing

For some reason, this SCI show never circulated in trading groups. As a SCI fan going on 15 years, 
trust me in saying that this show SMOKES! Hands down my favorite of all time; has 
it all...incredible jams, good ol' bluegrass, jazz and Paul McCandless on brass.

This soundboard copy was given directly to me by none other than Larry Fox (who also taped this), 
curator of SCI's "On The Road" series of live releases. Do yourself a favor and get this NOW.

- SundayNoise

***********************************************
Shntool Output
    length     expanded size    cdr  WAVE problems  fmt   ratio  filename
    12:06.03      128073500 B   ---   --   ---xx   flac  0.5173  sci1998-02-23d1t01 Lonesome Fiddle.flac
     9:50.22      104127788 B   ---   --   ---xx   flac  0.5622  sci1998-02-23d1t02 Reggae Woman.flac
     5:26.07       57522908 B   ---   --   ---xx   flac  0.5209  sci1998-02-23d1t03 Big Sciota.flac
     6:53.11       72879116 B   ---   --   ---xx   flac  0.5511  sci1998-02-23d1t04 MLT.flac
     4:14.05       44817404 B   ---   --   ---xx   flac  0.5373  sci1998-02-23d1t05 Another Night.flac
     7:37.36       80699516 B   ---   --   ---xx   flac  0.6033  sci1998-02-23d2t01 The Joker.flac
     5:36.73       59442140 B   ---   --   ---xx   flac  0.5765  sci1998-02-23d2t02 Eat My Dust.flac
     9:56.57      105268508 B   ---   --   ---xx   flac  0.5871  sci1998-02-23d2t03 Bubblehouse Jam.flac
     8:16.52       87616748 B   ---   --   ---xx   flac  0.6035  sci1998-02-23d2t04 Bigger Isnt Better.flac
     5:59.21       63377036 B   ---   --   ---xx   flac  0.5682  sci1998-02-23d2t05 You Can Call Me Al.flac
    10:19.70      109356284 B   ---   --   ---xx   flac  0.5598  sci1998-02-23d2t06 San Jose.flac
     1:34.03       16588700 B   ---   --   ---xx   flac  0.4233  sci1998-02-23d2t07 Set 2 Intro.flac
     7:52.39       83352572 B   ---   --   ---xx   flac  0.5651  sci1998-02-23d2t08 Got What He Wanted.flac
     3:38.74       38629292 B   ---   --   ---xx   flac  0.5390  sci1998-02-23d2t09 Salt Creek.flac
     1:20.34       14192012 B   ---   --   ---xx   flac  0.3736  sci1998-02-23d2t10 Chatter.flac
     8:46.74       92960492 B   ---   --   ---xx   flac  0.5802  sci1998-02-23d2t11 Come As You Are.flac
     7:51.44       83187932 B   ---   --   ---xx   flac  0.5258  sci1998-02-23d3t01 Galactic.flac
     9:15.50       98019644 B   ---   --   ---xx   flac  0.5500  sci1998-02-23d3t02 Wake Up.flac
     7:18.63       77411420 B   ---   --   ---xx   flac  0.5079  sci1998-02-23d3t03 Lester Had A Coconut.flac
     4:40.45       49497884 B   ---   --   ---xx   flac  0.5412  sci1998-02-23d3t04 Drums.flac
    16:44.05      177117404 B   ---   --   ---xx   flac  0.5333  sci1998-02-23d3t05 Texas.flac
     6:11.63       65592620 B   ---   --   ---xx   flac  0.5320  sci1998-02-23d3t06 Reggae Jam.flac
    14:47.15      156502124 B   ---   --   ---xx   flac  0.5470  sci1998-02-23d3t07 I Know You Rider.flac
   176:19.41     1866233044 B                            0.5502  (23 files)



More information about the bittorrent mailing list