[bittorrent] furthur2011-03-08.b+k.t-bone

Automated Mailer noreply-bt.e at etree.org
Sun May 8 12:34:51 MDT 2011


Band:           Furthur
Torrent Name:   furthur2011-03-08.b+k.t-bone
Uploaded by:    nfagdtrfb
DB Link:        
Details:        http://bt.etree.org/details.php?id=544732

Contact the seeder at http://db.etree.org/nfagdtrfb

If the link to this show does not work, it was probably removed for
being non-trade-friendly.

Description / text file:
-------------------------
FURTHUR
Oakdale Theater
Wallingford CT
03-08-2011

Disc One - First Set

01 Mississippi Half Step
02 Easy Wind
03 Operator
04 Oh! Darling
05 Reuben & Cherise
06 Dark Hollow
07 Money for Gasoline
08 Foolish Heart

Disc Two - Second Set

01 Hard to Handle
02 Smokestack Lightning
03 Spoonful
04 He's Gone
05 Turn on Your Lovelight
06 Scarlet Begonias
07 Fire on the Mountain

Disc Three - Second Set Continued

01 Days Between
02 Eyes of the World
03 Sugar Magnolia
04 Donor Rap
05 Johnny B. Goode

Source: B+K's 4021's > PSP3 > Marantz PMD-620.
Recording and transfer to CDR by T-Bone.
CDR > EAC > TLH > FLAC 1644 tagged.

    length     expanded size    cdr  WAVE problems  fmt   ratio  filename
     9:29.38      100461020 B   ---   --   ---xx   flac  0.4678  furthur2011-03-08d1t01.flac
     7:42.19       81541532 B   ---   --   ---xx   flac  0.4746  furthur2011-03-08d1t02.flac
     5:30.62       58357868 B   ---   --   ---xx   flac  0.4771  furthur2011-03-08d1t03.flac
     3:58.41       42079676 B   ---   --   ---xx   flac  0.4792  furthur2011-03-08d1t04.flac
    10:23.25      109956044 B   ---   --   ---xx   flac  0.4868  furthur2011-03-08d1t05.flac
     5:31.03       58395500 B   ---   --   ---xx   flac  0.4498  furthur2011-03-08d1t06.flac
     6:59.52       74033948 B   ---   --   ---xx   flac  0.5052  furthur2011-03-08d1t07.flac
     9:34.57      101387708 B   ---   --   ---xx   flac  0.5008  furthur2011-03-08d1t08.flac
    10:00.35      105922364 B   ---   --   ---xx   flac  0.4733  furthur2011-03-08d2t01.flac
     5:46.71       61201436 B   ---   --   ---xx   flac  0.4609  furthur2011-03-08d2t02.flac
     4:57.19       52435532 B   ---   --   ---xx   flac  0.4363  furthur2011-03-08d2t03.flac
    10:20.55      109497404 B   ---   --   ---xx   flac  0.4499  furthur2011-03-08d2t04.flac
     8:48.56       93270956 B   ---   --   ---xx   flac  0.4892  furthur2011-03-08d2t05.flac
    12:36.45      133464284 B   ---   --   ---xx   flac  0.4846  furthur2011-03-08d2t06.flac
    10:25.09      110271212 B   ---   --   ---xx   flac  0.5000  furthur2011-03-08d2t07.flac
    18:16.64      193484972 B   ---   --   ---xx   flac  0.4340  furthur2011-03-08d3t01.flac
    13:01.29      137836652 B   ---   --   ---xx   flac  0.4853  furthur2011-03-08d3t02.flac
    10:22.72      109890188 B   ---   --   ---xx   flac  0.5147  furthur2011-03-08d3t03.flac
     0:53.09        9370412 B   ---   --   ---xx   flac  0.4103  furthur2011-03-08d3t04.flac
     3:55.28       41519900 B   ---   --   ---xx   flac  0.5172  furthur2011-03-08d3t05.flac
   168:35.39     1784378608 B                            0.4766  (20 files)

No errors occured.




More information about the bittorrent mailing list