[bittorrent] Grateful Dead - 1988-03-16 Henry J. Kaiser Convention Center - Oakland, CA *Matrix*

Automated Mailer noreply-bt.e at etree.org
Sun May 8 10:09:28 MDT 2011


Band:           Grateful Dead
Torrent Name:   Grateful Dead - 1988-03-16 Henry J. Kaiser Convention Center - Oakland, CA *Matrix*
Uploaded by:    hseamons
DB Link:        
Details:        http://bt.etree.org/details.php?id=544727

Contact the seeder at http://db.etree.org/hseamons

If the link to this show does not work, it was probably removed for
being non-trade-friendly.

Description / text file:
-------------------------
Grateful Dead
Henry J. Kaiser Convention Center
Oakland, CA
March 16, 1988

Jerry Garcia - Lead Guitar, Vocals
Mickey Hart - Drums
Bill Kreutzmann - Drums
Phil Lesh - Electric Bass, Vocals
Brent Mydland - Keyboards, Vocals
Bob Weir - Rhythm Guitar, Vocals


 
*Matrix*



-----------------------------------------------------------------
SBD (shnid=8864):

Source:
SBD>DAT>CDR>EAC>CDR

Notes:
I got these shn discs from Peter Gallagher, and upped them into the etree server network.  

Willy 
_willy_ at junkiesplace.com
EAC/SHN by Peter Gallagher
Seeded to etree 04/15/02

-----------------------------------------------------------------
AUD (shnid=102670):

Modified Nakamichi 700's>cardiod capsules>custom dbx with
Sony TC-D5M
40 feet away, Dead Center
Maxell MX 90 nr dbx II

MAC>NakCR-3A>dbx224>HD>Audacity>CDWave>TLH

Recorded by Tazuo Yamaguchi
Transferred by Russ Cansler

[11/19/09]

-----------------------------------------------------------------
Thank you to Peter Gallagher for the SBD transfer,
to Tazuo Yamaguchi for recording the show,
and to Russ Cansler for the AUD transfer.

Matrix by Jubal H. Seamons using Final Cut Pro (SHN & FLAC > AIFF > Final Cut > AIFF CD tracking via Audacity > FLAC16 via xACT) 
May 8, 2011



Set I
-----
d1t01 - Tuning			
d1t02 - Alabama Getaway ->		
d1t03 - Greatest Story Ever Told	
d1t04 - Stagger Lee			
d1t05 - Walkin' Blues		
d1t06 - Candyman			
d1t07 - Queen Jane Approximately	
d1t08 - Big Boss Man		
d1t09 - Cassidy			
d1t10 - Don't Ease Me In			


Set II
-----
d2t01 - Tuning			
d2t02 - Scarlet Begonias ->		
d2t03 - Fire On The Mountain
d2t04 - Playing In The Band ->	
d2t05 - Drums ->			
d2t06 - Space ->			
d2t07 - The Wheel ->		
d2t08 - Gimme Some Lovin' ->	
d2t09 - All Along The Watchtower ->	
d2t10 - Morning Dew			

Encore
------
d1t11 - Touch of Grey




Notes:

1) Due to heavy mix fluctuations during Alabama, I opted to have only the SBD play for the song. The AUD fades in toward the very end of Alabama. There are additional mix fluctuations during Greatest Story Ever Told, but things are pretty consistent by the time Stagger Lee starts.

2) Occasional glitches/anomalies in the SBD.




    length     expanded size    cdr  WAVE problems  fmt   ratio  filename
     1:08.26       12056396 B   ---   --   ---xx  gd88-03-16d1t01.flac
     5:05.56       53933756 B   ---   --   ---xx  gd88-03-16d1t02.flac
     5:07.55       54284204 B   ---   --   ---xx  gd88-03-16d1t03.flac
     5:51.38       62005820 B   ---   --   ---xx  gd88-03-16d1t04.flac
     7:19.42       77538428 B   ---   --   ---xx  gd88-03-16d1t05.flac
     7:45.21       82075436 B   ---   --   ---xx  gd88-03-16d1t06.flac
     6:13.05       65809004 B   ---   --   ---xx  gd88-03-16d1t07.flac
     6:03.08       64052060 B   ---   --   ---xx  gd88-03-16d1t08.flac
     6:04.18       64251980 B   ---   --   ---xx  gd88-03-16d1t09.flac
     3:37.24       38335292 B   ---   --   ---xx  gd88-03-16d1t10.flac
     6:57.30       73629404 B   ---   --   ---xx  gd88-03-16d1t11.flac
     1:37.30       17181404 B   ---   --   ---xx  gd88-03-16d2t01.flac
    10:29.17      110995628 B   ---   --   ---xx  gd88-03-16d2t02.flac
    14:06.60      149375564 B   ---   --   ---xx  gd88-03-16d2t03.flac
    10:43.37      113512268 B   ---   --   ---xx  gd88-03-16d2t04.flac
     8:47.62       93108668 B   ---   --   ---xx  gd88-03-16d2t05.flac
     8:03.52       85323548 B   ---   --   ---xx  gd88-03-16d2t06.flac
     4:11.67       44434028 B   ---   --   ---xx  gd88-03-16d2t07.flac
     4:37.52       48985148 B   ---   --   ---xx  gd88-03-16d2t08.flac
     5:53.39       62360972 B   ---   --   ---xx  gd88-03-16d2t09.flac
    11:16.54      119373452 B   ---   --   ---xx  gd88-03-16d2t10.flac
   141:01.43     1492622460 B                            0.6038  (21 files)



More information about the bittorrent mailing list