[bittorrent] gd79-01-18.102444.sbd.miller.t-flac16

Automated Mailer noreply-bt.e at etree.org
Wed May 4 06:45:23 MDT 2011


Band:           Grateful Dead
Torrent Name:   gd79-01-18.102444.sbd.miller.t-flac16
Uploaded by:    germain
DB Link:        http://db.etree.org/shn/102444
Details:        http://bt.etree.org/details.php?id=544616

Contact the seeder at http://db.etree.org/germain

If the link to this show does not work, it was probably removed for
being non-trade-friendly.

Description / text file:
-------------------------
This is a tagged version of shnid: 102444

Grateful Dead  
January 18, 1979
Civic Center  
Providence, RI
gd79-01-18.sbd.miller.102444.sbeok.flac16

Recording Info:
SBD -> Cassette Master (Sony D5) -> Cassette (Sony D5)

Transfer Info:
Cassette (Nakamichi DR-1) -> Sound Devices 744T (24bit/96k) ->
Adobe Audition v1.5 -> Samplitude Professional v10.22 -> FLAC/16
(3 Discs Audio / 2 Discs FLAC)

All Mastering By Charlie Miller
charliemiller87 at earthlink.net
November 7, 2009

Patch Info:
(FOB) Nakamichi 300/CP1 -> Cassette Master (shnid=100210) supplies:
Promised Land (0:00 - 0:23)
Bertha (4:50 - end of track)
Good Lovin' (0:00 - 0:09)
He's Gone (6:06 - 6:31)
U.S. Blues (complete track)

Notes:
-- Set 2 is seamless
-- Thanks to David Young and Rich Rothenberg for the tapes
-- Thanks to Joe B. Jones for his help with the pitch correction
________________________________________________________________________

--Set 1--
101-d1t01 - The Promised Land
102-d1t02 - They Love Each Other
103-d1t03 - Mama Tried ->
104-d1t04 - Mexicali Blues
105-d1t05 - Friend of the Devil
106-d1t06 - Cassidy
107-d1t07 - Jack-A-Roe
108-d1t08 - Looks Like Rain
109-d1t09 - Ramble on Rose
110-d1t10 - New Minglewood Blues
111-d1t11 - Deal

--Set 2--
201-d2t01 - I Need a Miracle ->
202-d2t02 - Bertha ->
203-d2t03 - Good Lovin'
204-d2t04 - From the Heart of Me
205-d2t05 - Ship of Fools
206-d3t01 - He's Gone ->
207-d3t02 - Truckin' ->
208-d3t03 - The Other One ->
209-d3t04 - Wharf Rat ->
210-d3t05 - Around & Around

--Encore--
211-d3t06 - U.S. Blues
_________________________________________________________________________

Tagging notes:
Show information is embedded within the header of each flac file. 
It will display on any player capable of directly playing flac 
files. If converted to wav during processing, all tags will be 
stripped, however audio data will remain unaffected. If you must 
transcode to a lossy format, do so directly Flac > Lossy.
Use ffp to validate audio integrity.
Md5 values will change if tagging is altered.
B. Proctor 11-15-09
________________________________________________________________________

SHNTOOL OUTPUT:
    length     expanded size   cdr  WAVE problems filename
     4:58.16       52604876    ---   --   -----   gd79-01-18d1t01.wav
     9:09.65       96996524    ---   --   -----   gd79-01-18d1t02.wav
     2:45.68       29265980    ---   --   -----   gd79-01-18d1t03.wav
     4:31.23       47858540    ---   --   -----   gd79-01-18d1t04.wav
     9:22.20       99183884    ---   --   -----   gd79-01-18d1t05.wav
     5:16.22       55794188    ---   --   -----   gd79-01-18d1t06.wav
     5:50.62       61885868    ---   --   -----   gd79-01-18d1t07.wav
     7:32.09       79754012    ---   --   -----   gd79-01-18d1t08.wav
    11:02.72      116946188    ---   --   -----   gd79-01-18d1t09.wav
     6:04.37       64296668    ---   --   -----   gd79-01-18d1t10.wav
     7:06.34       75226412    ---   --   -----   gd79-01-18d1t11.wav
     6:18.45       66785084    ---   --   -----   gd79-01-18d2t01.wav
     6:48.12       71999468    ---   --   -----   gd79-01-18d2t02.wav
     7:17.27       77150348    ---   --   -----   gd79-01-18d2t03.wav
     4:33.37       48244268    ---   --   -----   gd79-01-18d2t04.wav
     9:12.56       97504556    ---   --   -----   gd79-01-18d2t05.wav
    12:38.62      133857068    ---   --   -----   gd79-01-18d3t01.wav
     8:27.04       89444252    ---   --   -----   gd79-01-18d3t02.wav
    12:39.28      133953500    ---   --   -----   gd79-01-18d3t03.wav
    10:08.39      107342972    ---   --   -----   gd79-01-18d3t04.wav
     7:30.61       79523516    ---   --   -----   gd79-01-18d3t05.wav
     5:42.18       60371180    ---   --   -----   gd79-01-18d3t06.wav
   164:57.67     1745989352 B                     (totals for 22 files)




More information about the bittorrent mailing list