[bittorrent] gd79-01-17.102443.sbd.miller.t-flac16

Automated Mailer noreply-bt.e at etree.org
Tue May 3 06:39:57 MDT 2011


Band:           Grateful Dead
Torrent Name:   gd79-01-17.102443.sbd.miller.t-flac16
Uploaded by:    germain
DB Link:        http://db.etree.org/shn/102443
Details:        http://bt.etree.org/details.php?id=544591

Contact the seeder at http://db.etree.org/germain

If the link to this show does not work, it was probably removed for
being non-trade-friendly.

Description / text file:
-------------------------
This is a tagged version of shnid: 102443

Grateful Dead 
January 17, 1979
New Haven Coliseum 
New Haven, CT
gd79-01-17.sbd.miller.102443.sbeok.flac16

Recording Info:
SBD -> Cassette Master (Sony D5) -> Cassette (Sony D5)

Transfer Info:
Cassette (Nakamichi DR-1) -> Sound Devices 744T (24bit/96k) ->
Adobe Audition v1.5 -> Samplitude Professional v10.22 -> FLAC/16
(3 Discs Audio / 2 Discs FLAC)

All Mastering By Charlie Miller
charliemiller87 at earthlink.net
November 7, 2009

Patch Info:
(FOB) Nakamichi 300/CP1 -> Cassette Master (shnid=99009) supplies:
Shakedown Street (1:00 - 1:42) (10:47 - 10:53)
Eyes Of The World (9:07 - 9:35)
Black Peter (9:21 - end of track)
Around And Around (complete track)
Good Lovin' (complete track)
Casey Jones (complete track)

Notes:
-- Set 2 is seamless
-- Rescheduled from November 25, 1978
-- Thanks to David Young and Rich Rothenberg for the tapes
-- Thanks to Joe B. Jones for his help with the pitch correction
_________________________________________________________________________

--Set 1--
101-d1t01 - Bobby announces cancellation on 11/25/78
102-d1t02 - Shakedown Street
103-d1t03 - Me & My Uncle ->
104-d1t04 - Big River
105-d1t05 - Peggy-O
106-d1t06 - Beat It on Down the Line
107-d1t07 - Stagger Lee
108-d1t08 - New Minglewood Blues
109-d1t09 - Brown Eyed Women
110-d1t10 - From the Heart Of Me
111-d1t11 - I Need a Miracle

--Set 2--
201-d2t01 - Scarlet Begonias ->
202-d2t02 - Fire on the Mountain
203-d2t03 - Estimated Prophet ->
204-d2t04 - Eyes of the World ->
205-d2t05 - Drums ->
206-d3t01 - Jam ->
207-d3t02 - Not Fade Away ->
208-d3t03 - Black Peter ->
209-d3t04 - Around & Around ->
210-d3t05 - Good Lovin'

--Encore--
211-d3t06 - Casey Jones
_________________________________________________________________________

Tagging notes:
Show information is embedded within the header of each flac file. 
It will display on any player capable of directly playing flac 
files. If converted to wav during processing, all tags will be 
stripped, however audio data will remain unaffected. If you must 
transcode to a lossy format, do so directly Flac > Lossy.
Use ffp to validate audio integrity.
Md5 values will change if tagging is altered.
B. Proctor 11-15-09
_________________________________________________________________________


SHNTOOL OUTPUT:
    length     expanded size   cdr  WAVE problems filename
     1:11.54       12651452    ---   --   -----   gd79-01-17d1t01.wav
    11:25.51      120953996    ---   --   -----   gd79-01-17d1t02.wav
     3:10.66       33671276    ---   --   -----   gd79-01-17d1t03.wav
     6:10.07       65284508    ---   --   -----   gd79-01-17d1t04.wav
     7:13.63       76529420    ---   --   -----   gd79-01-17d1t05.wav
     4:30.73       47799740    ---   --   -----   gd79-01-17d1t06.wav
     6:10.71       65435036    ---   --   -----   gd79-01-17d1t07.wav
     6:44.45       71371484    ---   --   -----   gd79-01-17d1t08.wav
     5:41.68       60312380    ---   --   -----   gd79-01-17d1t09.wav
     3:53.24       41157692    ---   --   -----   gd79-01-17d1t10.wav
     6:40.35       70642364    ---   --   -----   gd79-01-17d1t11.wav
     9:56.04      105143852    ---   --   -----   gd79-01-17d2t01.wav
    14:17.32      151250108    ---   --   -----   gd79-01-17d2t02.wav
    12:10.67      128929628    ---   --   -----   gd79-01-17d2t03.wav
    11:38.56      123258956    ---   --   -----   gd79-01-17d2t04.wav
    10:54.45      115471484    ---   --   -----   gd79-01-17d2t05.wav
     9:43.16      102878876    ---   --   -----   gd79-01-17d3t01.wav
    13:44.05      145365404    ---   --   -----   gd79-01-17d3t02.wav
    14:07.02      149415548    ---   --   -----   gd79-01-17d3t03.wav
     6:15.14       66182972    ---   --   -----   gd79-01-17d3t04.wav
     8:02.59       85163612    ---   --   -----   gd79-01-17d3t05.wav
     7:01.11       74290316    ---   --   -----   gd79-01-17d3t06.wav
   180:45.43     1913160104 B                     (totals for 22 files)




More information about the bittorrent mailing list