[bittorrent] gd79-01-17.99009.fob-nak300.rolfe-miller.sbeok.t-flac16

Automated Mailer noreply-bt.e at etree.org
Tue May 3 06:37:24 MDT 2011


Band:           Grateful Dead
Torrent Name:   gd79-01-17.99009.fob-nak300.rolfe-miller.sbeok.t-flac16
Uploaded by:    germain
DB Link:        http://db.etree.org/shn/99009
Details:        http://bt.etree.org/details.php?id=544590

Contact the seeder at http://db.etree.org/germain

If the link to this show does not work, it was probably removed for
being non-trade-friendly.

Description / text file:
-------------------------
This is a tagged version of shnid: 99009

Grateful Dead 
January 17, 1979
New Haven Coliseum 
New Haven, CT

Recording Info:
(FOB) Nakamichi 300/CP1 -> Cassette Master 
(Sony TC-158/Maxell UDXL-I90/Dolby B)

Transfer Info:
Cassette Master (Nakamichi DR-1/Dolby B) -> Sound Devices 744T 
(24bit/96k) ->Samplitude Professional v10.2.1 -> Adobe Audition 
v1.5 -> FLAC/16
(3 Discs Audio / 2 Discs FLAC)

All Transfers and Mastering By Charlie Miller
charliemiller87 at earthlink.net
May 14, 2009

Patch Info:
(FOB) Nakamichi 300/CP1 -> Cassette Master -> FLAC (shnid=85101) supplies:
Brown Eyed Women (0:00 - 0:17)
Drums (9:32 - end of track)
Around And Around (5:35 - 5:57)

Notes:
-- Set 2 is seamless
-- Rescheduled from November 25, 1978
-- Recorded by Steve Rolfe (Left Center 17th Row)
-- Thanks to Steve Rolfe for lending me his masters
-- Thanks to Joe B. Jones for his help with the pitch correction
__________________________________________________________________________

--Set 1--
101-d1t01 - Bobby announces cancellation on 11/25/78
102-d1t02 - Shakedown Street
103-d1t03 - Me & My Uncle ->
104-d1t04 - Big River
105-d1t05 - Peggy-O
106-d1t06 - Beat It on Down the Line
107-d1t07 - Stagger Lee
108-d1t08 - New Minglewood Blues
109-d1t09 - Brown Eyed Women
110-d1t10 - From the Heart Of Me
111-d1t11 - I Need a Miracle

--Set 2--
201-d2t01 - Tuning
202-d2t02 - Scarlet Begonias ->
203-d2t03 - Fire on the Mountain
204-d2t04 - Estimated Prophet ->
205-d2t05 - Eyes of the World ->
206-d2t06 - Drums ->
207-d3t01 - Jam ->
208-d3t02 - Not Fade Away ->
209-d3t03 - Black Peter ->
210-d3t04 - Around & Around ->
211-d3t05 - Good Lovin'

--Encore--
212-d3t06 - Casey Jones
__________________________________________________________________________

Tagging notes:
Show information is embedded within the header of each flac file. 
It will display on any player capable of directly playing flac files. 
If converted to wav during processing, all tags will be stripped, 
however audio data will remain unaffected. 
If you must transcode to a lossy format, do so directly Flac > Lossy.
Use st5 to validate audio integrity.
Md5 values will change if tagging is altered.
B. Proctor 5-01-11
__________________________________________________________________________

SHNTOOL OUTPUT:
    length     expanded size   cdr  WAVE problems filename
     1:11.54       12651452    ---   --   -----   gd79-01-17d1t01.wav
    12:40.43      134165180    ---   --   -----   gd79-01-17d1t02.wav
     3:10.61       33659516    ---   --   -----   gd79-01-17d1t03.wav
     7:18.61       77406716    ---   --   -----   gd79-01-17d1t04.wav
     7:54.26       83674796    ---   --   -----   gd79-01-17d1t05.wav
     6:11.30       65515004    ---   --   -----   gd79-01-17d1t06.wav
     7:43.56       81804956    ---   --   -----   gd79-01-17d1t07.wav
     7:25.68       78657980    ---   --   -----   gd79-01-17d1t08.wav
     6:49.56       72279356    ---   --   -----   gd79-01-17d1t09.wav
     4:40.54       49519052    ---   --   -----   gd79-01-17d1t10.wav
     6:45.58       71578460    ---   --   -----   gd79-01-17d1t11.wav
     2:07.52       22525148    ---   --   -----   gd79-01-17d2t01.wav
     9:29.21      100421036    ---   --   -----   gd79-01-17d2t02.wav
    14:16.08      151017260    ---   --   -----   gd79-01-17d2t03.wav
    12:10.42      128870828    ---   --   -----   gd79-01-17d2t04.wav
    11:39.18      123345980    ---   --   -----   gd79-01-17d2t05.wav
    10:31.53      111433100    ---   --   -----   gd79-01-17d2t06.wav
     9:45.39      103285772    ---   --   -----   gd79-01-17d3t01.wav
    13:59.23      148053740    ---   --   -----   gd79-01-17d3t02.wav
    14:13.00      150469244    ---   --   -----   gd79-01-17d3t03.wav
     6:15.14       66182972    ---   --   -----   gd79-01-17d3t04.wav
     8:02.59       85163612    ---   --   -----   gd79-01-17d3t05.wav
     7:01.10       74287964    ---   --   -----   gd79-01-17d3t06.wav
   191:25.06     2025969124 B                     (totals for 23 files)




More information about the bittorrent mailing list