[bittorrent] gd1991-03-27.nak300.andrewf.113159.flac1644

Automated Mailer noreply-bt.e at etree.org
Mon May 2 17:43:18 MDT 2011


Band:           Grateful Dead
Torrent Name:   gd1991-03-27.nak300.andrewf.113159.flac1644
Uploaded by:    nfagdtrfb
DB Link:        http://db.etree.org/shn/113159
Details:        http://bt.etree.org/details.php?id=544576

Contact the seeder at http://db.etree.org/nfagdtrfb

If the link to this show does not work, it was probably removed for
being non-trade-friendly.

Description / text file:
-------------------------
GRATEFUL DEAD
Nassau Coliseum
Uniondale NY
03-27-1991

s1t01 crowd & tuning
s1t02 Hell in a Bucket
s1t03 Cold Rain & Snow
s1t04 Minglewood Blues
s1t05 Row Jimmy
s1t06 Mama Tried >
s1t07 Maggie's Farm
s1t08 Loose Lucy
s1t09 Picasso Moon
s1t10 Reuben & Cherise

s2t01 Scarlet Begonias >
s2t02 Fire on the Mountain
s2t03 Estimated Prophet >
s2t04 Uncle John's Band >
s2t05 Drums >
s2t06 Electronic Percussion >
s2t07 Space >
s2t08 All Along the Watchtower >
s2t09 Stella Blue >
s2t10 Sugar Magnolia
s2t11 crowd & tuning
s2t12 Encore: Box of Rain

AUD: 2x Nakamichi CM300/CP4 shotguns > Casio DA-7 > 
Maxell DM Dat. Mics on 7-foot stand, front row OTS.

Transfer: MAD > Sony DTC-690 > Optical Out > Marantz 
CDR-500 > CDR > EAC > Wavelab > CD-Wave > TLH > FLAC 
1644 Tagged. Taped & transferred by Andrew F. 04/2011

D1 s1t01 > s1t09, D2 s2t01 > s2t06, D3 s2t07 > s2t12.

    length     expanded size    cdr  WAVE problems  fmt   ratio  filename
     2:09.11       22781516 B   ---   --   ---xx   flac  0.5031  gd1991-03-27s1t01.flac
     8:31.43       90241580 B   ---   --   ---xx   flac  0.5715  gd1991-03-27s1t02.flac
     7:45.02       82030748 B   ---   --   ---xx   flac  0.5687  gd1991-03-27s1t03.flac
    11:19.49      119890892 B   ---   --   ---xx   flac  0.5562  gd1991-03-27s1t04.flac
    13:16.25      140473244 B   ---   --   ---xx   flac  0.5352  gd1991-03-27s1t05.flac
     2:31.44       26739932 B   ---   --   ---xx   flac  0.6103  gd1991-03-27s1t06.flac
     7:43.72       81842588 B   ---   --   ---xx   flac  0.5989  gd1991-03-27s1t07.flac
    10:13.64      108283772 B   ---   --   ---xx   flac  0.5792  gd1991-03-27s1t08.flac
     6:59.74       74085692 B   ---   --   ---xx   flac  0.6384  gd1991-03-27s1t09.flac
     7:55.00       83790044 B   ---   --   ---xx   flac  0.6443  gd1991-03-27s1t10.flac
    11:33.40      122339324 B   ---   --   ---xx   flac  0.6307  gd1991-03-27s2t01.flac
    16:00.18      169386380 B   ---   --   ---xx   flac  0.6348  gd1991-03-27s2t02.flac
    12:47.61      135442316 B   ---   --   ---xx   flac  0.6216  gd1991-03-27s2t03.flac
    10:18.55      109144604 B   ---   --   ---xx   flac  0.6426  gd1991-03-27s2t04.flac
     1:52.71       19923836 B   ---   --   ---xx   flac  0.6054  gd1991-03-27s2t05.flac
     8:47.02       92967548 B   ---   --   ---xx   flac  0.4780  gd1991-03-27s2t06.flac
    11:39.22      123355388 B   ---   --   ---xx   flac  0.4879  gd1991-03-27s2t07.flac
     7:13.73       76552940 B   ---   --   ---xx   flac  0.6483  gd1991-03-27s2t08.flac
     9:43.67      102998828 B   ---   --   ---xx   flac  0.5642  gd1991-03-27s2t09.flac
     9:58.25      105546044 B   ---   --   ---xx   flac  0.6654  gd1991-03-27s2t10.flac
     1:07.52       11941148 B   ---   --   ---xx   flac  0.4645  gd1991-03-27s2t11.flac
     5:19.43       56372780 B   ---   --   ---xx   flac  0.6029  gd1991-03-27s2t12.flac
   184:49.13     1956131144 B                            0.5900  (22 files)

No errors occured.




More information about the bittorrent mailing list