No subject


Mon May 2 08:35:27 MDT 2011


Notes:
-- Set 2 is seamless
-- Sound quality improves as show goes on
-- The pitch is not perfect, but it's a lot better than it was
-- Thanks to David Young and Rich Rothenberg for the tapes
-- Thanks to Joe B. Jones for his help with the pitch correction
___________________________________________________________________________

--Set 1--
101-d1t01 - Jack Straw
102-d1t02 - Jack-A-Roe
103-d1t03 - Cassidy
104-d1t04 - Row Jimmy
105-d1t05 - Mama Tried ->
106-d1t06 - Mexicali Blues
107-d1t07 - Stagger Lee
108-d1t08 - Passenger
109-d1t09 - Deal

--Set 2--
201-d2t01 - Tuning/Where's Phil?
202-d2t02 - I Need a Miracle ->
203-d2t03 - Shakedown Street
204-d2t04 - From the Heart of Me
205-d3t01 - Terrapin Station ->
206-d3t02 - Playing in the Band ->
207-d3t03 - Drums ->
208-d3t04 - Space ->
209-d3t05 - Playing in the Band ->
210-d3t06 - Casey Jones

--Encore--
211-d3t07 - Johnny B. Goode
________________________________________________________________________

Tagging notes:
Show information is embedded within the header of each flac file. 
It will display on any player capable of directly playing flac 
files. If converted to wav during processing, all tags will be 
stripped, however audio data will remain unaffected. If you must 
transcode to a lossy format, do so directly Flac > Lossy.
Use ffp to validate audio integrity.
Md5 values will change if tagging is altered.
B. Proctor 11-15-09
________________________________________________________________________________



SHNTOOL OUTPUT:
    length     expanded size   cdr  WAVE problems filename
     8:31.45       90246284    ---   --   -----   gd79-01-15d1t01.wav
     7:22.70       78133484    ---   --   -----   gd79-01-15d1t02.wav
     7:10.30       75922604    ---   --   -----   gd79-01-15d1t03.wav
    14:09.40      149857724    ---   --   -----   gd79-01-15d1t04.wav
     2:34.18       27207980    ---   --   -----   gd79-01-15d1t05.wav
     6:18.46       66787436    ---   --   -----   gd79-01-15d1t06.wav
     9:26.48       99955340    ---   --   -----   gd79-01-15d1t07.wav
     5:21.44       56727932    ---   --   -----   gd79-01-15d1t08.wav
     7:07.69       75485132    ---   --   -----   gd79-01-15d1t09.wav
     1:23.13       14671820    ---   --   -----   gd79-01-15d2t01.wav
     6:49.03       72154700    ---   --   -----   gd79-01-15d2t02.wav
    12:11.70      129113084    ---   --   -----   gd79-01-15d2t03.wav
     4:25.11       46771916    ---   --   -----   gd79-01-15d2t04.wav
    14:36.52      154648748    ---   --   -----   gd79-01-15d3t01.wav
    18:31.44      196083932    ---   --   -----   gd79-01-15d3t02.wav
     9:03.05       95797004    ---   --   -----   gd79-01-15d3t03.wav
     7:50.62       83053868    ---   --   -----   gd79-01-15d3t04.wav
     6:01.48       63793340    ---   --   -----   gd79-01-15d3t05.wav
     6:00.37       63591068    ---   --   -----   gd79-01-15d3t06.wav
     4:18.42       45610028    ---   --   -----   gd79-01-15d3t07.wav
   159:15.47     1685613424 B                     (totals for 20 files)




More information about the bittorrent mailing list