[bittorrent] gd79-01-15.90095.fob-nak300.fplfe-miller.sbeok.t-flac16

Automated Mailer noreply-bt.e at etree.org
Mon May 2 06:03:16 MDT 2011


Band:           Grateful Dead
Torrent Name:   gd79-01-15.90095.fob-nak300.fplfe-miller.sbeok.t-flac16
Uploaded by:    germain
DB Link:        http://db.etree.org/shn/90095
Details:        http://bt.etree.org/details.php?id=544561

Contact the seeder at http://db.etree.org/germain

If the link to this show does not work, it was probably removed for
being non-trade-friendly.

Description / text file:
-------------------------
This is a tagged version of shnid: 90095

Grateful Dead 
January 15, 1979
Civic Center Arena  
Springfield, MA
gd79-01-15.fob.nak300.rolfe-miller.90095.sbeok.flac16

Recording Info:
(FOB) Nakamichi 300/CP1 -> Cassette Master (Sony TC-158/Maxell UDXL-I90/Dolby B)

Transfer Info:
Cassette Master (Nakamichi DR-1/Dolby B) -> Sound Devices 744T (24bit/96k) ->
Samplitude Professional v10.02 -> Cool Edit Pro v2.0 -> FLAC/16
(3 Discs Audio / 2 Discs FLAC)

All Transfers and Mastering By Charlie Miller
charliemiller87 at earthlink.net
February 19, 2008

Notes:
-- Set 2 is seamless
-- Recorded by Steve Rolfe (Section 61 Row S Seat 7)
-- Thanks to Steve Rolfe for lending me his masters
-- Thanks to Joe B. Jones for his help with the pitch correction
________________________________________________________________________________

--Set 1--
101-d1t01 - Tuning
102-d1t02 - Jack Straw
103-d1t03 - Jack-A-Roe
104-d1t04 - Cassidy
105-d1t05 - Row Jimmy
106-d1t06 - Mama Tried ->
107-d1t07 - Mexicali Blues
108-d1t08 - Stagger Lee
109-d1t09 - Passenger
110-d1t10 - Deal

--Set 2--
201-d2t01 - Tuning/Where's Phil?
202-d2t02 - I Need a Miracle ->
203-d2t03 - Shakedown Street
204-d2t04 - From the Heart of Me
205-d3t01 - Terrapin Station ->
206-d3t02 - Playing in the Band ->
207-d3t03 - Drums ->
208-d3t04 - Space ->
209-d3t05 - Playing in the Band ->
210-d3t06 - Casey Jones

--Encore--
211-d3t07 - Johnny B. Goode
________________________________________________________________________________

Tagging notes:
Show information is embedded within the header of each flac file. 
It will display on any player capable of directly playing flac 
files. If converted to wav during processing, all tags will be 
stripped, however audio data will remain unaffected. If you must 
transcode to a lossy format, do so directly Flac > Lossy.
Use ffp to validate audio integrity.
Md5 values will change if tagging is altered.
B. Proctor 4-22-09
________________________________________________________________________________

SHNTOOL OUTPUT:
    length     expanded size   cdr  WAVE problems filename
     2:18.10       24366764    ---   --   -----   gd79-01-15d1t01.wav
     7:26.30       78745004    ---   --   -----   gd79-01-15d1t02.wav
     7:25.05       78509804    ---   --   -----   gd79-01-15d1t03.wav
     9:03.34       95865212    ---   --   -----   gd79-01-15d1t04.wav
    13:38.35      144377564    ---   --   -----   gd79-01-15d1t05.wav
     2:33.64       27139772    ---   --   -----   gd79-01-15d1t06.wav
     7:28.08       79046060    ---   --   -----   gd79-01-15d1t07.wav
     9:50.08      104094860    ---   --   -----   gd79-01-15d1t08.wav
     7:01.15       74299724    ---   --   -----   gd79-01-15d1t09.wav
     7:24.19       78366332    ---   --   -----   gd79-01-15d1t10.wav
     3:14.39       34313372    ---   --   -----   gd79-01-15d2t01.wav
     6:49.47       72258188    ---   --   -----   gd79-01-15d2t02.wav
    13:07.69      138989132    ---   --   -----   gd79-01-15d2t03.wav
     4:53.38       51774620    ---   --   -----   gd79-01-15d2t04.wav
    14:21.55      152009804    ---   --   -----   gd79-01-15d3t01.wav
    18:07.66      191902076    ---   --   -----   gd79-01-15d3t02.wav
     7:58.43       84420380    ---   --   -----   gd79-01-15d3t03.wav
     7:59.69       84657932    ---   --   -----   gd79-01-15d3t04.wav
     6:02.56       63988556    ---   --   -----   gd79-01-15d3t05.wav
     7:06.64       75296972    ---   --   -----   gd79-01-15d3t06.wav
     4:31.45       47910284    ---   --   -----   gd79-01-15d3t07.wav
   168:23.69     1782332412 B                     (totals for 21 files)



More information about the bittorrent mailing list