[bittorrent] Grateful Dead - 1990-03-22 Copps Coliseum - Hamilton, Ontario *Matrix*

Automated Mailer noreply-bt.e at etree.org
Sun May 1 13:34:18 MDT 2011


Band:           Grateful Dead
Torrent Name:   Grateful Dead - 1990-03-22 Copps Coliseum - Hamilton, Ontario *Matrix*
Uploaded by:    hseamons
DB Link:        
Details:        http://bt.etree.org/details.php?id=544544

Contact the seeder at http://db.etree.org/hseamons

If the link to this show does not work, it was probably removed for
being non-trade-friendly.

Description / text file:
-------------------------
Grateful Dead
Copps Coliseum
Hamilton, Ontario
March 22, 1990

Jerry Garcia - Lead Guitar, Vocals
Mickey Hart - Drums
Bill Kreutzmann - Drums
Phil Lesh - Electric Bass, Vocals
Brent Mydland - Keyboards, Vocals
Bob Weir - Rhythm Guitar, Vocals


 
*Matrix*



-----------------------------------------------------------------
SBD (shnid=107871):

Recording Info:
SBD -> Cassette Master (TDK SA-X90)

Transfer Info:
Cassette Master (Nakamichi DR-1) -> Sound Devices 744T (24bit/48k) ->
Samplitude Professional v11.03 -> FLAC/16
(2 Discs Audio / 2 Discs FLAC)

All Transfers and Mastering By Charlie Miller
charliemiller87 at earthlink.net
May 22, 2010

[Cut:]
Drums (2:39 - 4:35)

-----------------------------------------------------------------
AUD (shnid=7460):

Source: Schoeps CMC54 (ORTF, 19th row) > Aerco PS > DAT @ 48kHz
Transfer: DAT(2) > Sony PCM-2600 > Audioquest coax > TB Fiji >
          Soundforge 4.5 (downsampled with Cool Edit  Pro 1.2) >
          CDWave > MKWAct. No DAE. (by Craig Hillwig)

[Taper: Dave Brotman]
[2/5/02]

-----------------------------------------------------------------
Thank you to Charlie Miller for the SBD transfer,
to Dave Brotman for recording the show,
and to Craig Hillwig for the AUD transfer.

Matrix by Jubal Hunter Seamons using Final Cut Pro (SHN & FLAC > AIFF > Final Cut > AIFF CD tracking via Audacity > FLAC16 via xACT) 
May 1, 2011



Set I
-----
d1t01 - Tuning
d1t02 - Feel Like A Stranger
d1t03 - West L.A. Fadeaway
d1t04 - Easy To Love You
d1t05 - Beat It On Down The Line
d1t06 - It Must Have Been The Roses
d1t07 - The Last Time
d1t08 - Picasso Moon
d1t09 - Don't Ease Me In

Set II
-----
d2t01 - Tuning
d2t02 - Scarlet Begonias ->
d2t03 - Fire On The Mountain
d2t04 - Samson And Delilah
d2t05 - Believe It Or Not* ->
d2t06 - Truckin' ->
d2t07 - Drums ->
d3t01 - Space ->
d3t02 - The Other One ->
d3t03 - Hey Jude** ->
d3t04 - Dear Mr. Fantasy ->
d3t05 - Hey Jude ->
d3t06 - Sugar Magnolia

Encore
------
d3t07 - It's All Over Now, Baby Blue



*final performance - last "Believe It Or Not" 10-21-1988 (89 shows)
**final performance - last complete "Hey Jude" 03-01-1969 (1522 shows!)



Notes:

1) The vocals often have a "phasey" sound in the SBD, but this is normal. 




    length     expanded size    cdr  WAVE problems  fmt   ratio  filename
     3:38.74       38629292 B   ---   --   ---xx  gd90-06-22d1t01.flac
     8:32.00       90316844 B   ---   --   ---xx  gd90-06-22d1t02.flac
     7:35.39       80353772 B   ---   --   ---xx  gd90-06-22d1t03.flac
     6:52.32       72752108 B   ---   --   ---xx  gd90-06-22d1t04.flac
     3:50.56       40703756 B   ---   --   ---xx  gd90-06-22d1t05.flac
     7:28.70       79191884 B   ---   --   ---xx  gd90-06-22d1t06.flac
     8:31.44       90243932 B   ---   --   ---xx  gd90-06-22d1t07.flac
     7:04.06       74807756 B   ---   --   ---xx  gd90-06-22d1t08.flac
     3:28.42       36790028 B   ---   --   ---xx  gd90-06-22d1t09.flac
     2:20.34       24776012 B   ---   --   ---xx  gd90-06-22d2t01.flac
     8:06.74       85904492 B   ---   --   ---xx  gd90-06-22d2t02.flac
    11:59.09      126852812 B   ---   --   ---xx  gd90-06-22d2t03.flac
     6:46.68       71778380 B   ---   --   ---xx  gd90-06-22d2t04.flac
     6:38.06       70221356 B   ---   --   ---xx  gd90-06-22d2t05.flac
    10:59.49      116362892 B   ---   --   ---xx  gd90-06-22d2t06.flac
    10:45.22      113829788 B   ---   --   ---xx  gd90-06-22d2t07.flac
     7:00.29       74156252 B   ---   --   ---xx  gd90-06-22d3t01.flac
     8:23.39       88820972 B   ---   --   ---xx  gd90-06-22d3t02.flac
     4:51.54       51459452 B   ---   --   ---xx  gd90-06-22d3t03.flac
     3:58.33       42060860 B   ---   --   ---xx  gd90-06-22d3t04.flac
     4:29.69       47613932 B   ---   --   ---xx  gd90-06-22d3t05.flac
    10:50.54      114787052 B   ---   --   ---xx  gd90-06-22d3t06.flac
     7:08.34       75579212 B   ---   --   ---xx  gd90-06-22d3t07.flac
   161:22.37     1707992836 B                            0.5717  (23 files)



More information about the bittorrent mailing list