[bittorrent] Futurebirds - 2011-01-29 - Cannery Ballroom - Nashville, TN. *MK4V*

Automated Mailer noreply-bt.e at etree.org
Mon Jan 31 13:50:48 MST 2011


Band:           Other
Torrent Name:   Futurebirds - 2011-01-29 - Cannery Ballroom - Nashville, TN. *MK4V*
Uploaded by:    mmedley
DB Link:        
Details:        http://bt.etree.org/details.php?id=542136

Contact the seeder at http://db.etree.org/mmedley

If the link to this show does not work, it was probably removed for
being non-trade-friendly.

Description / text file:
-------------------------
Futurebirds
2011-01-29
Cannery Ballroom
Nashville, TN.


***16bit Source***


Source: Schoeps MK4V > KC5 > CMC6 > Sound Devices 722 (24bit/48kHz)
Location: FOB / DFC / ORTF / 7ft
Transfer: 722 > HDD > Wavelab 6.1 (Crystal Re-Sampler/MBit+ Dither/Fades) > CDWave > TLH > FLAC (8)
Taped, Transferred & Seeded by Martin Medley


One Set:

01. Intro
02. Johnny Utah
03. APO
04. Battle For Rome
05. Dirty D
06. MJB
07. ???
08. Red Top Girl
09. Ski Chalet *
10. Wild Heart *


* with Jay Gonzalez on keyboards


[Opened for Drive-By Truckers]



shntool info:

    length     expanded size    cdr  WAVE problems  fmt   ratio  filename
     1:28.10       15546764 B   ---   --   ---xx   flac  0.4836  fb2011-01-29t01.flac
     4:52.74       51682892 B   ---   --   ---xx   flac  0.5996  fb2011-01-29t02.flac
     5:20.35       56530364 B   ---   --   ---xx   flac  0.5741  fb2011-01-29t03.flac
     4:43.16       49958876 B   ---   --   ---xx   flac  0.5859  fb2011-01-29t04.flac
     5:07.29       54223052 B   ---   --   ---xx   flac  0.6152  fb2011-01-29t05.flac
     6:35.12       69706268 B   ---   --   ---xx   flac  0.5950  fb2011-01-29t06.flac
     2:57.67       31380428 B   ---   --   ---xx   flac  0.5987  fb2011-01-29t07.flac
     6:45.33       71519660 B   ---   --   ---xx   flac  0.5913  fb2011-01-29t08.flac
     7:02.18       74483180 B   ---   --   ---xx   flac  0.5817  fb2011-01-29t09.flac
     4:16.06       45172556 B   ---   --   ---xx   flac  0.6336  fb2011-01-29t10.flac
    49:09.00      520204040 B                            0.5922  (10 files)





More information about the bittorrent mailing list