[bittorrent] Oneal Armstrong 2011-01-22 Dive Bar Worcester, MA Schoeps MK22/CMC6>Sonosax SX-M2>Apogee Mini-me**16bit**

Automated Mailer noreply-bt.e at etree.org
Mon Jan 31 09:21:50 MST 2011


Band:           Other
Torrent Name:   Oneal Armstrong 2011-01-22 Dive Bar Worcester, MA Schoeps MK22/CMC6>Sonosax SX-M2>Apogee Mini-me**16bit**
Uploaded by:    andyjah
DB Link:        
Details:        http://bt.etree.org/details.php?id=542130

Contact the seeder at http://db.etree.org/andyjah

If the link to this show does not work, it was probably removed for
being non-trade-friendly.

Description / text file:
-------------------------
Oneal Armstrong
2011-01-22
Dive Bar
Worcester MA

Recorded and transferred by Andy Murray

NOS center support 5' from stage
Schoeps MK41>KC5>CMC6>Sonosax SX-M2>Apogee Mini-me(aes out,24bit/96khz)>COAX>Edirol R-44

SDHC Card>USB>Macbook Pro>Wave Editor(tracking,fades,resample(izotope)/dither(mbit+)to 16 bit/44.1k)>XAct(FLAC 8,ffp,fix sbe)

Charley O'Neal - Guitar
Rick O'Neal - Bass
Jeff Armstrong - Drums
John Cooke - Organ
Craig Rawding - Vocals/Effects
? - Trombone

2 Discs
2 Sets
(3rd set was not recorded)

    length     expanded size    cdr  WAVE problems  fmt   ratio  filename
    14:51.54      157299452 B   ---   --   -----  oneal2011-01-22_mk22_1644_d1t01.wav
    17:40.69      187146332 B   ---   --   -----  oneal2011-01-22_mk22_1644_d1t02.wav
    15:11.47      160810988 B   ---   --   -----  oneal2011-01-22_mk22_1644_d1t03.wav
    10:14.31      108382556 B   ---   --   -----  oneal2011-01-22_mk22_1644_d1t04.wav
    13:20.40      141214124 B   ---   --   -----  oneal2011-01-22_mk22_1644_d1t05.wav
     7:32.53       79857500 B   ---   --   -----  oneal2011-01-22_mk22_1644_d2t01.wav
    16:25.42      173852828 B   ---   --   -----  oneal2011-01-22_mk22_1644_d2t02.wav
    15:25.16      163207676 B   ---   --   -----  oneal2011-01-22_mk22_1644_d2t03.wav
    10:52.62      115158668 B   ---   --   -----  oneal2011-01-22_mk22_1644_d2t04.wav
    12:46.09      135143612 B   ---   --   -----  oneal2011-01-22_mk22_1644_d2t05.wav
    10:58.05      116083004 B   ---   --   -----  oneal2011-01-22_mk22_1644_d2t06.wav
     4:59.30       52814204 B   ---   --   -----  oneal2011-01-22_mk22_1644_d2t07.wav
   150:19.08     1590970944 B                            1.0000  (12 files)



More information about the bittorrent mailing list