[bittorrent] STS9 Now Sapphire Resort (On The Beach) Riviera Cancun, Mexico 1/20/2011 (Schoeps CCM4V'S FOB)

Automated Mailer noreply-bt.e at etree.org
Sun Jan 30 21:22:20 MST 2011


Band:           Sound Tribe Sector 9
Torrent Name:   STS9 Now Sapphire Resort (On The Beach) Riviera Cancun, Mexico 1/20/2011 (Schoeps CCM4V'S FOB)
Uploaded by:    zmanatl
DB Link:        
Details:        http://bt.etree.org/details.php?id=542115

Contact the seeder at http://db.etree.org/zmanatl

If the link to this show does not work, it was probably removed for
being non-trade-friendly.

Description / text file:
-------------------------
STS9
Mayan Holidaze
Now Sapphire Resort - On The Beach
Riviera Cancun, Mexico
1/20/2011

Source: Schoeps CCM4V'S(din)>Lunatec V2>Benchmark AD2K>
Sound Devices 722 (24/48)
FOB/FOC/ITS/DFC/KFC/ZFC/AARP 60' From Stage, 7' High
DSP: Sound Devices 722>Sound Forge 9.0>CD Wave>flac(16)
Recorded By: Z-Man
Seeded By: Z-Man

Disc I 1st Set

01 Greeting/Tuning
02 ? >
03 ? >
04 ? >
05 ? >
06 ? >
07 ?
08 ? >
09 ?
10 

Disc II 2nd Set

01 ?
02 ? >
03 ? >
04 ?
05 ? >
06 ? 
07 ?
08 ? >
09 ?

Flac Fingerprint 

sts92011-01-20d01t01.flac:485a0a2cc8d16cea2fe182a4bcf2c025
sts92011-01-20d01t02.flac:0373b0cf4eb91d83edbf3bf2d93fd04a
sts92011-01-20d01t03.flac:c9ce6444f01be89c14e2671660344e16
sts92011-01-20d01t04.flac:006993ebd12115de949e2672f6e49f1a
sts92011-01-20d01t05.flac:17f5ec35af35978d1ae4b63f444feb22
sts92011-01-20d01t06.flac:833b55407401b3e527882d8b8017c38e
sts92011-01-20d01t07.flac:831c225a06316dd71135b1e058821501
sts92011-01-20d01t08.flac:5eceb9187040327a73a7fb781e15b898
sts92011-01-20d01t09.flac:f86e2ab583a79f00d27f9e459da9da6d
sts92011-01-20d01t10.flac:dfc15da3074944dc009badff6fa59aa6
sts92011-01-20d02t01.flac:239c6112e5b119e54db6097c0669aa3e
sts92011-01-20d02t02.flac:d7317c744d0dee6464f473daf798f79d
sts92011-01-20d02t03.flac:c4476133c42c219b4ce565468816c705
sts92011-01-20d02t04.flac:9acb6adf1813e690b7f9f90066435b00
sts92011-01-20d02t05.flac:1b71fda62254bcb66244af141c1a45dd
sts92011-01-20d02t06.flac:d224573240d55d667f64bab5f201eadb
sts92011-01-20d02t07.flac:2256130cccc97907a7b6eeaeea42b1e2
sts92011-01-20d02t08.flac:1a2627a5b158fa498e6f924b79587594
sts92011-01-20d02t09.flac:94991039f10613af267b1338dddce049

Shntool 

    length     expanded size    cdr  WAVE problems  fmt   ratio  filename
     0:27.48        4875740 B   ---   --   ---xx   flac  0.2697  sts92011-01-20d01t01.flac
     9:59.23      105717740 B   ---   --   ---xx   flac  0.4785  sts92011-01-20d01t02.flac
     5:21.43       56725580 B   ---   --   ---xx   flac  0.5236  sts92011-01-20d01t03.flac
    12:33.51      132949196 B   ---   --   ---xx   flac  0.4570  sts92011-01-20d01t04.flac
     7:45.57       82160108 B   ---   --   ---xx   flac  0.4394  sts92011-01-20d01t05.flac
     7:47.25       82437644 B   ---   --   ---xx   flac  0.5044  sts92011-01-20d01t06.flac
    10:44.59      113740412 B   ---   --   ---xx   flac  0.4640  sts92011-01-20d01t07.flac
     6:06.72       64731788 B   ---   --   ---xx   flac  0.4726  sts92011-01-20d01t08.flac
     6:08.50       65032844 B   ---   --   ---xx   flac  0.4832  sts92011-01-20d01t09.flac
    10:15.52      108608348 B   ---   --   ---xx   flac  0.5040  sts92011-01-20d01t10.flac
     7:27.33       78928460 B   ---   --   ---xx   flac  0.4533  sts92011-01-20d02t01.flac
     8:17.43       87771980 B   ---   --   ---xx   flac  0.2325  sts92011-01-20d02t02.flac
     5:22.72       56970188 B   ---   --   ---xx   flac  0.2412  sts92011-01-20d02t03.flac
     3:53.18       41143580 B   ---   --   ---xx   flac  0.2554  sts92011-01-20d02t04.flac
     8:50.71       93659036 B   ---   --   ---xx   flac  0.3953  sts92011-01-20d02t05.flac
     8:16.10       87517964 B   ---   --   ---xx   flac  0.4535  sts92011-01-20d02t06.flac
     9:09.38       96933020 B   ---   --   ---xx   flac  0.4767  sts92011-01-20d02t07.flac
    10:11.25      107839244 B   ---   --   ---xx   flac  0.4569  sts92011-01-20d02t08.flac
     6:35.24       69734492 B   ---   --   ---xx   flac  0.3675  sts92011-01-20d02t09.flac
   145:15.64     1537477364 B                            0.4344  (19 files)






More information about the bittorrent mailing list