[bittorrent] Professor Louie And The Cromatix Narrows Center For The Arts Fall River, Massachusetts 1/29/2011 (Schoeps CCM4V'S FOB)

Automated Mailer noreply-bt.e at etree.org
Sun Jan 30 19:59:52 MST 2011


Band:           Other
Torrent Name:   Professor Louie And The Cromatix Narrows Center For The Arts Fall River, Massachusetts 1/29/2011 (Schoeps CCM4V'S FOB)
Uploaded by:    zmanatl
DB Link:        
Details:        http://bt.etree.org/details.php?id=542112

Contact the seeder at http://db.etree.org/zmanatl

If the link to this show does not work, it was probably removed for
being non-trade-friendly.

Description / text file:
-------------------------
Professor Louie And The Cromatix
Narrows Center For The Arts
Fall River, Massachusetts
1/29/2011

Source: Schoeps CCM4V'S(din)>Lunatec V2>Benchmark AD2K>
Sound Devices 722 (24/48)
FOB/DFC/KFC/ZFC/AARP 17' From Stage, 6 1/2' High
DSP: Sound Devices 722>Sound Forge 9.0>CD Wave>flac(16)
Recorded By: Z-Man
Seeded By: Z-Man

Disc I 

01 Introduction By Pat
02 Ophelia
03 I Got A Need For You ?
04 Blind Willie McTell
05 Band Introductions
06 Remedy
07 Now Look What You've Done
08 Ain't No More Cane On The Brazos
09 Clouds In My Heart
10 To Serve Somebody

Disc II 

01 ?
02 Bump In The Nights
03 Like A Rolling Stone
04 One More Day
05 Band Introductions
06 ?
07 The Weight
Encore:
08 Thanks
09 Slippin' And Slidin'

Aaron "Professor Louie" Hurwitz - Keyboards, Accordian, And Vocals
Josh Colow - Guitar
Frank Campbell - Bass And Vocals
Gary Burke - Drums
Miss Marie Spinosa - Vocals And Percussion

Flac Fingerprint 

proflouie2011-01-29d01t01.flac:1a056beff82c984beb31fc526d63d009
proflouie2011-01-29d01t02.flac:99ea974763555d173ddeac91635cf4a1
proflouie2011-01-29d01t03.flac:cfe8ddf37bff564b41c8b15108d3951f
proflouie2011-01-29d01t04.flac:62cfc3d1f71f3b7e7e56ff6a7b73bbd3
proflouie2011-01-29d01t05.flac:d6aedd7a1e9b3fa4931106f3d4455bc0
proflouie2011-01-29d01t06.flac:28da5617efd7478417c64f1e5588ca84
proflouie2011-01-29d01t07.flac:2e8e8c90b9fc44d1cb3f6245b1647d87
proflouie2011-01-29d01t08.flac:a15f72d4abd315955bc2727cf6570ac2
proflouie2011-01-29d01t09.flac:2d6cf3722797613c4c7943fdb59552ed
proflouie2011-01-29d01t10.flac:ac231045fd496185c8a377edb1f24047
proflouie2011-01-29d02t01.flac:f4c46167e5eb287cd32f85860be293fa
proflouie2011-01-29d02t02.flac:228c1fe677190292cd2767295ef52ba6
proflouie2011-01-29d02t03.flac:c0f441e33ba30ea89f7d0f9159a114b3
proflouie2011-01-29d02t04.flac:1416df3b9e6d3aa93d3c86c8556712fe
proflouie2011-01-29d02t05.flac:1521ebc7d788d690e6f8b79958b49d3c
proflouie2011-01-29d02t06.flac:05e257c4570e90ce5f9ec7877b87fede
proflouie2011-01-29d02t07.flac:c021765d2c52adfec82bbbcc5d41f0f8
proflouie2011-01-29d02t08.flac:cceef61ea138f01d6d039a0da279aaff
proflouie2011-01-29d02t09.flac:a959ee481ab89dafc66898c6980d1191

Shntool 

    length     expanded size    cdr  WAVE problems  fmt   ratio  filename
     2:11.69       23270732 B   ---   --   ---xx   flac  0.3534  proflouie2011-01-29d01t01.flac
     4:12.10       44476364 B   ---   --   ---xx   flac  0.6134  proflouie2011-01-29d01t02.flac
     4:02.44       42792332 B   ---   --   ---xx   flac  0.6063  proflouie2011-01-29d01t03.flac
     8:37.13       91229420 B   ---   --   ---xx   flac  0.5008  proflouie2011-01-29d01t04.flac
     0:41.45        7338284 B   ---   --   ---xx   flac  0.4825  proflouie2011-01-29d01t05.flac
     4:11.40       44370524 B   ---   --   ---xx   flac  0.5857  proflouie2011-01-29d01t06.flac
     5:03.47       53559788 B   ---   --   ---xx   flac  0.4910  proflouie2011-01-29d01t07.flac
     4:24.09       46590812 B   ---   --   ---xx   flac  0.4654  proflouie2011-01-29d01t08.flac
     7:14.70       76722284 B   ---   --   ---xx   flac  0.5555  proflouie2011-01-29d01t09.flac
     5:20.22       56499788 B   ---   --   ---xx   flac  0.5449  proflouie2011-01-29d01t10.flac
     6:42.59       71051612 B   ---   --   ---xx   flac  0.4647  proflouie2011-01-29d02t01.flac
     6:14.26       66034796 B   ---   --   ---xx   flac  0.5500  proflouie2011-01-29d02t02.flac
     6:30.09       68817212 B   ---   --   ---xx   flac  0.5794  proflouie2011-01-29d02t03.flac
     5:08.09       54352412 B   ---   --   ---xx   flac  0.5016  proflouie2011-01-29d02t04.flac
     0:41.05        7244204 B   ---   --   ---xx   flac  0.4572  proflouie2011-01-29d02t05.flac
     5:12.57       55170908 B   ---   --   ---xx   flac  0.5820  proflouie2011-01-29d02t06.flac
     6:38.14       70240172 B   ---   --   ---xx   flac  0.5875  proflouie2011-01-29d02t07.flac
     0:38.53        6827900 B   ---   --   ---xx   flac  0.3996  proflouie2011-01-29d02t08.flac
     4:18.03       45518300 B   ---   --   ---xx   flac  0.5527  proflouie2011-01-29d02t09.flac
    88:04.04      932107844 B                            0.5354  (19 files)




 












More information about the bittorrent mailing list