[bittorrent] Commander Cody Band Narrows Center For The Arts Fall River, Massachusetts 1/29/2011 (Schoeps CCM4V'S FOB)

Automated Mailer noreply-bt.e at etree.org
Sun Jan 30 11:02:22 MST 2011


Band:           Other
Torrent Name:   Commander Cody Band Narrows Center For The Arts Fall River, Massachusetts 1/29/2011 (Schoeps CCM4V'S FOB)
Uploaded by:    zmanatl
DB Link:        
Details:        http://bt.etree.org/details.php?id=542097

Contact the seeder at http://db.etree.org/zmanatl

If the link to this show does not work, it was probably removed for
being non-trade-friendly.

Description / text file:
-------------------------
Commander Cody Banb
Narrows Center For The Arts
Fall River, Massachusetts
1/29/2011

Source: Schoeps CCM4V'S(din)>Lunatec V2>Benchmark AD2K>
Sound Devices 722 (24/48)
FOB/DFC/KFC/ZFC/AARP 17' From Stage, 6 1/2' High
DSP: Sound Devices 722>Sound Forge 9.0>CD Wave>flac(16)
Recorded By: Z-Man
Seeded By: Z-Man

Disc I 

01 Introduction By Pat
02 *Too Much Fun >
03 *Riot In Cell Block #9
04 #Smoke, Smoke, Smoke That Cigarette
05 *Thank You Lone Ranger
06 *Truck Drivin' Man
07 *What's The Matter Now
08 *House Of Blue Lights
09 *It Should Have Been Me >
10 *They Kicked Me Out Of The Band
11 *@Don't Let Go

Disc II 

01 *@I Ain't Never >
02 *@Lightnin' Bar Blues
03 *Oh Mama Mama
04 *Hot Rod Lincoln
05 *@+Seeds And Stems 
06 *+Beat Me Daddy A To The Bar > 
07 +Drum Solo >
08 *+Beat Me Daddy A To The Bar >
09 #+Lost In The Ozone Again
Encore:
10 Crowd
11 *+Rockin' Over China

* With Professor Louie On Hammond B-3 Organ And Vocals
# With Professor Louie On Accordian
@ With Ms. Marie On Vocals
+ With Gary Burke  On Drums

Commander Cody Band:

George Frayne "Commander Cody" - Piano And Vocals
Mark Emerick - Guitar And Vocals
Steve Barbutto - Drums And Vocals
Frank Campbell - Bass And Vocals

Flac Fingerprint 

cody2011-01-29d01t01.flac:36b1aef592b5408f75c6add8aabebfeb
cody2011-01-29d01t02.flac:c66bea49a6c428a44f998642a6c8b483
cody2011-01-29d01t03.flac:d4c0044280f79e70616a173be5dd6715
cody2011-01-29d01t04.flac:92a17aa14834543bdd5590e46446d20c
cody2011-01-29d01t05.flac:bcbe4504395c76646023f1eab7725612
cody2011-01-29d01t06.flac:b059f86c604b3517783659ac698c8cb8
cody2011-01-29d01t07.flac:64c962201a067d2abfea6cef00948468
cody2011-01-29d01t08.flac:5e561e59565a2e247214de0de5ac3019
cody2011-01-29d01t09.flac:0716787c256a7efe5aca5900694c1187
cody2011-01-29d01t10.flac:8b573d56dae8b93e9dc30a767cf1284a
cody2011-01-29d01t11.flac:c2fd724781ef0225e592da852c786e1e
cody2011-01-29d02t01.flac:4d2605d795c4ef7b0466a77f22d270c9
cody2011-01-29d02t02.flac:d6dbe8b80d40cb1b089ee61b74542ad8
cody2011-01-29d02t03.flac:8b518037e3d578093719d30e159b49d6
cody2011-01-29d02t04.flac:0356333742644b9537f766b02ad55cfc
cody2011-01-29d02t05.flac:f36cf4164525f951fbc6ab062f560444
cody2011-01-29d02t06.flac:1d1006275f786d0adf01753b2b4954fb
cody2011-01-29d02t07.flac:eec2ce8cf875a320066189a1dd11b3fb
cody2011-01-29d02t08.flac:d553749f81dd5de99c5777ce1e053d68
cody2011-01-29d02t09.flac:3e0c293991626b0e882ad1cf781e4738
cody2011-01-29d02t10.flac:89a4a90e03a484ed9fb29b7eb02cb8e6
cody2011-01-29d02t11.flac:e1493c335224ba0fc0a595273b23bb6d

Shntool 

    length     expanded size    cdr  WAVE problems  fmt   ratio  filename
     2:17.40       24260924 B   ---   --   ---xx   flac  0.3685  cody2011-01-29d01t01.flac
     4:47.14       50659772 B   ---   --   ---xx   flac  0.5944  cody2011-01-29d01t02.flac
     5:29.66       58190876 B   ---   --   ---xx   flac  0.5007  cody2011-01-29d01t03.flac
     5:09.30       54578204 B   ---   --   ---xx   flac  0.5354  cody2011-01-29d01t04.flac
     4:10.30       44170604 B   ---   --   ---xx   flac  0.5504  cody2011-01-29d01t05.flac
     4:15.46       45090236 B   ---   --   ---xx   flac  0.5698  cody2011-01-29d01t06.flac
     4:47.44       50730332 B   ---   --   ---xx   flac  0.5457  cody2011-01-29d01t07.flac
     4:59.16       52781276 B   ---   --   ---xx   flac  0.5487  cody2011-01-29d01t08.flac
     6:46.09       71639612 B   ---   --   ---xx   flac  0.5316  cody2011-01-29d01t09.flac
     3:33.54       37700252 B   ---   --   ---xx   flac  0.5145  cody2011-01-29d01t10.flac
     3:47.43       40143980 B   ---   --   ---xx   flac  0.5785  cody2011-01-29d01t11.flac
     3:10.68       33675980 B   ---   --   ---xx   flac  0.5299  cody2011-01-29d02t01.flac
     5:38.16       59660876 B   ---   --   ---xx   flac  0.5255  cody2011-01-29d02t02.flac
     6:49.65       72300524 B   ---   --   ---xx   flac  0.5458  cody2011-01-29d02t03.flac
     6:25.67       68071628 B   ---   --   ---xx   flac  0.5137  cody2011-01-29d02t04.flac
     5:06.29       54046652 B   ---   --   ---xx   flac  0.4773  cody2011-01-29d02t05.flac
     3:34.37       37836668 B   ---   --   ---xx   flac  0.5817  cody2011-01-29d02t06.flac
     1:50.48       19516940 B   ---   --   ---xx   flac  0.6425  cody2011-01-29d02t07.flac
     2:53.60       30658364 B   ---   --   ---xx   flac  0.6282  cody2011-01-29d02t08.flac
     4:14.07       44822108 B   ---   --   ---xx   flac  0.5680  cody2011-01-29d02t09.flac
     0:43.41        7681676 B   ---   --   ---xx   flac  0.3773  cody2011-01-29d02t10.flac
     5:52.28       62158700 B   ---   --   ---xx   flac  0.5816  cody2011-01-29d02t11.flac
    96:24.33     1020376184 B                            0.5415  (22 files)











More information about the bittorrent mailing list