[bittorrent] Giant Panda Guerilla Dub Squad House Of Blues Boston, Massachusetts 1/27/2011 (Schoeps CCM4V'S)

Automated Mailer noreply-bt.e at etree.org
Sat Jan 29 11:21:59 MST 2011


Band:           Other
Torrent Name:   Giant Panda Guerilla Dub Squad House Of Blues Boston, Massachusetts 1/27/2011 (Schoeps CCM4V'S)
Uploaded by:    zmanatl
DB Link:        
Details:        http://bt.etree.org/details.php?id=542073

Contact the seeder at http://db.etree.org/zmanatl

If the link to this show does not work, it was probably removed for
being non-trade-friendly.

Description / text file:
-------------------------
Giant Panda Guerilla Dub Squad
House Of Blues
Boston, Massachusetts
1/27/2011

Source: Schoeps CCM4V'S(din)>Lunatec V2>Benchmark AD2K>
Sound Devices 722 (24/48)
BOB/OTS/DFC/KFC/ZFC/AARP 7' High
DSP: Sound Devices 722>Sound Forge 9.0>CD Wave>flac(16)
Recorded By: Z-Man
Seeded By: Z-Man

Disc I 

01 Greeting
02 *Pockets >
03 *Healing
04 *Nothing Comes Easy >
05 Love You More >
06 Seasons >
07 Moon
08 *Next Best Explosion 
09 *? >
10 *? >
11 *Change You

* With John Brown's Body Horns

Flac Fingerprint 

gpgds2011-01-27d01t01.flac:8ec0189a8d33b34f70e4661f21242f03
gpgds2011-01-27d01t02.flac:30bb35a3423f55f6ae159fd4da8d4d43
gpgds2011-01-27d01t03.flac:47302da26ee9d20d55a75bdbabaf560b
gpgds2011-01-27d01t04.flac:0b0c570987e9d68f7b5992445931d411
gpgds2011-01-27d01t05.flac:bd0332bc3a3c990feb68863af0ef1bc1
gpgds2011-01-27d01t06.flac:eae9b5dfcf15e5a2d35df6bcce026036
gpgds2011-01-27d01t07.flac:50c7093a56a567a2f2fefb93538f9e6c
gpgds2011-01-27d01t08.flac:e07c5189561bd818fb3739811034afe0
gpgds2011-01-27d01t09.flac:d654236d123f507266731fb9ab8e7d78
gpgds2011-01-27d01t10.flac:c39b7785fd11728ea66beff142fd299c
gpgds2011-01-27d01t11.flac:d1a69fddd123e5293870be4fbc464c14

Shntool 

    length     expanded size    cdr  WAVE problems  fmt   ratio  filename
     0:21.37        3791468 B   ---   --   ---xx   flac  0.3497  gpgds2011-01-27d01t01.flac
     4:09.19       43968332 B   ---   --   ---xx   flac  0.4324  gpgds2011-01-27d01t02.flac
     3:41.38       39073820 B   ---   --   ---xx   flac  0.4686  gpgds2011-01-27d01t03.flac
     4:03.37       42952268 B   ---   --   ---xx   flac  0.4653  gpgds2011-01-27d01t04.flac
     4:41.46       49676636 B   ---   --   ---xx   flac  0.4352  gpgds2011-01-27d01t05.flac
     5:28.30       57929804 B   ---   --   ---xx   flac  0.4987  gpgds2011-01-27d01t06.flac
     6:15.17       66190028 B   ---   --   ---xx   flac  0.4188  gpgds2011-01-27d01t07.flac
    11:05.39      117397772 B   ---   --   ---xx   flac  0.4346  gpgds2011-01-27d01t08.flac
     4:42.60       49885964 B   ---   --   ---xx   flac  0.4522  gpgds2011-01-27d01t09.flac
     6:26.67       68248028 B   ---   --   ---xx   flac  0.5040  gpgds2011-01-27d01t10.flac
     5:40.04       59985452 B   ---   --   ---xx   flac  0.4711  gpgds2011-01-27d01t11.flac
    56:36.19      599099572 B                            0.4558  (11 files)






More information about the bittorrent mailing list