[bittorrent] Umphrey's McGee House Of Blues Boston, Massachusetts 1/27/2011 (Schoeps CCM4V'S)

Automated Mailer noreply-bt.e at etree.org
Fri Jan 28 08:20:27 MST 2011


Band:           Umphrey's McGee
Torrent Name:   Umphrey's McGee House Of Blues Boston, Massachusetts 1/27/2011 (Schoeps CCM4V'S)
Uploaded by:    zmanatl
DB Link:        
Details:        http://bt.etree.org/details.php?id=542057

Contact the seeder at http://db.etree.org/zmanatl

If the link to this show does not work, it was probably removed for
being non-trade-friendly.

Description / text file:
-------------------------
Umphrey's McGee
House Of Blues
Boston, Massachusetts
1/27/2011

Source: Schoeps CCM4V'S(din)>Lunatec V2>Benchmark AD2K>
Sound Devices 722 (24/48)
BOB/OTS/DFC/KFC/ZFC/AARP 35' From Stage, 7' High
DSP: Sound Devices 722>Sound Forge 9.0>CD Wave>flac(16)
Recorded By: Z-Man
Seeded By: Z-Man

Disc I 1st Set

01 Second Self
02 Great American 
03 Intentions Clear
04 ?
05 Passing
06 Norwegian Wood >
07 Resolution  

Disc II 2nd Set

01 All In Time >
02 Walletsworth
03 Come Closer
04 ? 
05 August 

Disc III 2nd Set Con't 

01 Much Obliged >
02 All In Time 
Encore:
03 Joel Banter
04 Front Porch

Flac Fingerprint 

um2011-01-27d01t01.flac:3adea12c7ac344feca3465c2e1073900
um2011-01-27d01t02.flac:87a89b13d3f9762f88f1c77835bbdda7
um2011-01-27d01t03.flac:c0f0aee4d654d6540a3e0b9702c2baac
um2011-01-27d01t04.flac:3ba29bbe2ad5544f0fc27db99ec9e3b1
um2011-01-27d01t05.flac:273aea740b6a0f2cc510569b94e0afe1
um2011-01-27d01t06.flac:869a73ee4c5388a7f9b2a9687c54fef9
um2011-01-27d01t07.flac:0e505cc0afb6959b5543ce2a55ee848b
um2011-01-27d02t01.flac:0f807bd5fdf67520857f4baa02e06dd7
um2011-01-27d02t02.flac:c6a7009b845f9cce7fafbcf101bbecbb
um2011-01-27d02t03.flac:4420cf8ca95fa01750c588150566040e
um2011-01-27d02t04.flac:7b9162d4c35e53e0dd6aa6b2cb8f63c3
um2011-01-27d02t05.flac:50adcb19b95cb76f178aa5d1e482a3f8
um2011-01-27d03t01.flac:647ed032eb96315b3e968dac7386e4af
um2011-01-27d03t02.flac:f42fc834c60d8c203b28fdb475eaaf77
um2011-01-27d03t03.flac:738dc5d53b286ad229edee52813cc557
um2011-01-27d03t04.flac:c54c2766472b9f9df486d707c554787a

Shntool 
Copyright (C) 2000-2007 Jason Jordan <shnutils at freeshell.org>

    length     expanded size    cdr  WAVE problems  fmt   ratio  filename
     8:29.47       89898188 B   ---   --   ---xx   flac  0.4847  um2011-01-27d01t01.flac
    14:09.46      149871836 B   ---   --   ---xx   flac  0.4988  um2011-01-27d01t02.flac
    14:27.00      152938844 B   ---   --   ---xx   flac  0.5099  um2011-01-27d01t03.flac
     6:15.49       66265292 B   ---   --   ---xx   flac  0.4975  um2011-01-27d01t04.flac
     4:34.44       48437132 B   ---   --   ---xx   flac  0.4655  um2011-01-27d01t05.flac
     2:40.47       28334588 B   ---   --   ---xx   flac  0.4825  um2011-01-27d01t06.flac
    15:22.00      162640844 B   ---   --   ---xx   flac  0.4924  um2011-01-27d01t07.flac
    13:26.59      142317212 B   ---   --   ---xx   flac  0.5091  um2011-01-27d02t01.flac
     5:48.36       61471916 B   ---   --   ---xx   flac  0.4736  um2011-01-27d02t02.flac
     5:37.32       59522108 B   ---   --   ---xx   flac  0.5022  um2011-01-27d02t03.flac
    13:40.20      144695084 B   ---   --   ---xx   flac  0.4834  um2011-01-27d02t04.flac
    14:50.53      157120700 B   ---   --   ---xx   flac  0.4782  um2011-01-27d02t05.flac
    16:11.50      171402044 B   ---   --   ---xx   flac  0.4756  um2011-01-27d03t01.flac
     8:37.67       91356428 B   ---   --   ---xx   flac  0.5075  um2011-01-27d03t02.flac
     0:56.71       10045436 B   ---   --   ---xx   flac  0.4035  um2011-01-27d03t03.flac
    13:41.19      144869132 B   ---   --   ---xx   flac  0.4917  um2011-01-27d03t04.flac
   158:50.40     1681186784 B                            0.4909  (16 files)










More information about the bittorrent mailing list