[bittorrent] [Project 1990] 1990-01-27 - The Front, Burlington, VT

Automated Mailer noreply-bt.e at etree.org
Thu Jan 27 17:14:46 MST 2011


Band:           Phish
Torrent Name:   [Project 1990] 1990-01-27 - The Front, Burlington, VT
Uploaded by:    twatts
DB Link:        
Details:        http://bt.etree.org/details.php?id=542043

Contact the seeder at http://db.etree.org/twatts

If the link to this show does not work, it was probably removed for
being non-trade-friendly.

Description / text file:
-------------------------
Phish
01-27-1990
The Front, Burlington, VT


Source: Unknown > Cass/x

Transfer: CDR > EAC > FLAC

The sound on this isn't great, basically for historic purposes until hopefully a better source surfaces.


Disc One:

 Set II:
01. Communication Breakdown			4:04
02. Caravan					7:30
03. You Enjoy Myself 				19:44
04. The Squirming Coil				6:05
05. Run Like an Antelope (Tape Flip)		8:53
06. Run Like an Antelope Cont			1:31
07. Terrapin					4:50
08. Divided Sky					13:53
 Encore:
09. La Grange					7:08



Show Notes: Check out this Wilson; unlike most versions, it had a heavy metal feel. 
This show marked the debut of Communication Breakdown.


ffp:
ph90-01-27d1t03.flac:164cd2e832d55c34d4cde1825f71be73
ph90-01-27d1t04.flac:4fa3ee137e3f6218394a44b961683bd9
ph90-01-27d1t05.flac:02efcd7b1d9e687c5fc609f822ac5261
ph90-01-27d1t06.flac:fdf2bf1bc746760fc4889ba105039fa3
ph90-01-27d1t07.flac:b58e24514e375ded2f431c5542c6f7d8
ph90-01-27d1t08.flac:cfc94a3f6e4b60de8ef3a9b17e9a8473
ph90-01-27d1t09.flac:50f0953f71028f4b425c9775ce2a34f9
ph90-01-27d1t01.flac:46ebf61c9a6f51939e046dfec7c1d9ac
ph90-01-27d1t02.flac:33f6890431c002d8758e44a426b0481a


M:\Alec.Swensen>shntool len c:\shows\ph1990-01-27.flac\*.wav
    length     expanded size    cdr  WAVE problems  fmt   ratio  filename
     4:04.72       43210988 B   ---   --   -----    wav  1.0000  c:\shows\ph1990
-01-27.flac\ph90-01-27d1t01.wav
     7:30.43       79481180 B   ---   --   -----    wav  1.0000  c:\shows\ph1990
-01-27.flac\ph90-01-27d1t02.wav
    19:44.31      208930556 B   ---   --   -----    wav  1.0000  c:\shows\ph1990
-01-27.flac\ph90-01-27d1t03.wav
     6:05.16       64423676 B   ---   --   -----    wav  1.0000  c:\shows\ph1990
-01-27.flac\ph90-01-27d1t04.wav
     8:53.46       94129436 B   ---   --   -----    wav  1.0000  c:\shows\ph1990
-01-27.flac\ph90-01-27d1t05.wav
     1:31.25       16111244 B   ---   --   -----    wav  1.0000  c:\shows\ph1990
-01-27.flac\ph90-01-27d1t06.wav
     4:50.34       51236012 B   ---   --   -----    wav  1.0000  c:\shows\ph1990
-01-27.flac\ph90-01-27d1t07.wav
    13:53.15      146976524 B   ---   --   -----    wav  1.0000  c:\shows\ph1990
-01-27.flac\ph90-01-27d1t08.wav
     7:08.42       75598028 B   ---   --   -----    wav  1.0000  c:\shows\ph1990
-01-27.flac\ph90-01-27d1t09.wav
    73:42.24      780097644 B                            1.0000  (9 files)

M:\Alec.Swensen>



More information about the bittorrent mailing list