[bittorrent] Jon Pontrello - Solo Acoustic The Earl Atlanta, Georgia 1/26/2011 (Schoeps CCM4V'S FOB)

Automated Mailer noreply-bt.e at etree.org
Thu Jan 27 14:13:47 MST 2011


Band:           Other
Torrent Name:   Jon Pontrello - Solo Acoustic The Earl Atlanta, Georgia 1/26/2011 (Schoeps CCM4V'S FOB)
Uploaded by:    zmanatl
DB Link:        
Details:        http://bt.etree.org/details.php?id=542040

Contact the seeder at http://db.etree.org/zmanatl

If the link to this show does not work, it was probably removed for
being non-trade-friendly.

Description / text file:
-------------------------
Jon Pontrello - Solo Acoustic
The Earl
Atlanta, Georgia
1/26/2011

Source: Schoeps CCM4V'S(din)>Lunatec V2>Benchmark AD2K>
Sound Devices 722 (24/48)
FOB/DFC/KFC/ZFC/AARP 14' From Stage, 7' High
DSP: Sound Devices 722>Sound Forge 9.0>CD Wave>flac(16)
Recorded By: Z-Man
Seeded By: Z-Man

Disc I 

01 Greeting
02 ?
03 This City's A Desert
04 Far Away
05 The Only Way
06 Don't Quit Your Day Job
07 ?

Flac Fingerprint 

jonpontrello2011-01-26d01t01.flac:9c321c573537560a7d16d597b8f18394
jonpontrello2011-01-26d01t02.flac:a24cc3587500cbd55f8d88750fe0ef0d
jonpontrello2011-01-26d01t03.flac:d9f509bb801947879f115a54f13f1b03
jonpontrello2011-01-26d01t04.flac:aa6d78dd98948e69494d57970c3e4f2e
jonpontrello2011-01-26d01t05.flac:2ebaf8ee4f16c546bccc584b820903b4
jonpontrello2011-01-26d01t06.flac:df980ad75ea3f3be027c83edabb8b1a0
jonpontrello2011-01-26d01t07.flac:e6145f6b89df96080c4d5266c8930108

Shntool 

    length     expanded size    cdr  WAVE problems  fmt   ratio  filename
     0:22.45        3986684 B   ---   --   ---xx   flac  0.3133  jonpontrello2011-01-26d01t01.flac
     2:47.72       29628188 B   ---   --   ---xx   flac  0.4298  jonpontrello2011-01-26d01t02.flac
     1:50.05       19415804 B   ---   --   ---xx   flac  0.4276  jonpontrello2011-01-26d01t03.flac
     3:18.26       34988396 B   ---   --   ---xx   flac  0.3228  jonpontrello2011-01-26d01t04.flac
     3:05.09       32655212 B   ---   --   ---xx   flac  0.3266  jonpontrello2011-01-26d01t05.flac
     4:07.19       43615532 B   ---   --   ---xx   flac  0.3446  jonpontrello2011-01-26d01t06.flac
     3:15.60       34539164 B   ---   --   ---xx   flac  0.4129  jonpontrello2011-01-26d01t07.flac
    18:47.11      198828980 B                            0.3698  (7 files)








 



More information about the bittorrent mailing list