[bittorrent] Quiet Life The Earl Atlanta, Georgia 1/26/2011 (Schoeps CCM4V'S FOB)

Automated Mailer noreply-bt.e at etree.org
Thu Jan 27 13:54:43 MST 2011


Band:           Other
Torrent Name:   Quiet Life The Earl Atlanta, Georgia 1/26/2011 (Schoeps CCM4V'S FOB)
Uploaded by:    zmanatl
DB Link:        
Details:        http://bt.etree.org/details.php?id=542039

Contact the seeder at http://db.etree.org/zmanatl

If the link to this show does not work, it was probably removed for
being non-trade-friendly.

Description / text file:
-------------------------
Quiet Life
The Earl
Atlanta, Georgia
1/26/2011

Source: Schoeps CCM4V'S(din)>Lunatec V2>Benchmark AD2K>
Sound Devices 722 (24/48)
FOB/DFC/KFC/ZFC/AARP 14' From Stage, 7' High
DSP: Sound Devices 722>Sound Forge 9.0>CD Wave>flac(16)
Recorded By: Z-Man
Seeded By: Z-Man

Disc I 

01 *Housebroken Man
02 San Luis Obispo >
03 Storm Clouds
04 Feels So Good
05 ?
06 Jim's Wedding Band
07 No Surprise
08 ?
09 Big Green 
10 Shari Darlin'
11 Downtown
12 Sean Tells A Story/Enter The Moondoggies
13 #Night Time

* Sean and ? Duet
# With The Moondoggies

Flac Fingerprint 

quietlife2011-01-26d01t01.flac:ff0a7e045f73868a6b7f64affec3438c
quietlife2011-01-26d01t02.flac:121e6f0b14bc01f7dd8271079b257223
quietlife2011-01-26d01t03.flac:44a2b59fbf1d10969c218b6db3f5a076
quietlife2011-01-26d01t04.flac:66ed6bd9055940a80128ec16bba11e08
quietlife2011-01-26d01t05.flac:b67d98dc61aa5e613566e7b79038d961
quietlife2011-01-26d01t06.flac:734a9c4ab695de46929fc0b225f32d5e
quietlife2011-01-26d01t07.flac:6e39b98971dad0fd438fafbdf8d8a2e4
quietlife2011-01-26d01t08.flac:5853404c887a53b8427cfd13f70baa28
quietlife2011-01-26d01t09.flac:e40f43d895eee57c8836c4b425bf7a55
quietlife2011-01-26d01t10.flac:01beb71cab3051f01314100c4a03cc33
quietlife2011-01-26d01t11.flac:89c0f047e5ca329e9115075612c4a1b1
quietlife2011-01-26d01t12.flac:4ed2a9594f6811a650dcb04af04cfa2a
quietlife2011-01-26d01t13.flac:eb9e7712be2418a851a9a51cb3eefd20

Shntool 

    length     expanded size    cdr  WAVE problems  fmt   ratio  filename
     5:30.64       58362572 B   ---   --   ---xx   flac  0.3402  quietlife2011-01-26d01t01.flac
     2:41.02       28405148 B   ---   --   ---xx   flac  0.5742  quietlife2011-01-26d01t02.flac
     2:30.66       26615276 B   ---   --   ---xx   flac  0.4675  quietlife2011-01-26d01t03.flac
     4:27.04       47108252 B   ---   --   ---xx   flac  0.5041  quietlife2011-01-26d01t04.flac
     4:05.32       43293308 B   ---   --   ---xx   flac  0.4176  quietlife2011-01-26d01t05.flac
     2:44.48       29042540 B   ---   --   ---xx   flac  0.5147  quietlife2011-01-26d01t06.flac
     5:00.13       52950620 B   ---   --   ---xx   flac  0.4264  quietlife2011-01-26d01t07.flac
     3:36.12       38130668 B   ---   --   ---xx   flac  0.5495  quietlife2011-01-26d01t08.flac
     3:10.35       33598364 B   ---   --   ---xx   flac  0.3570  quietlife2011-01-26d01t09.flac
     3:42.29       39229052 B   ---   --   ---xx   flac  0.5616  quietlife2011-01-26d01t10.flac
     3:19.37       35190668 B   ---   --   ---xx   flac  0.4708  quietlife2011-01-26d01t11.flac
     2:13.27       23524748 B   ---   --   ---xx   flac  0.3140  quietlife2011-01-26d01t12.flac
     5:25.34       57410012 B   ---   --   ---xx   flac  0.6003  quietlife2011-01-26d01t13.flac
    48:27.28      512861228 B                            0.4706  (13 files)






More information about the bittorrent mailing list