[bittorrent] gd78-04-08.83716.sbd.miller.sbeok.t-flac16

Automated Mailer noreply-bt.e at etree.org
Thu Jan 27 06:42:50 MST 2011


Band:           Grateful Dead
Torrent Name:   gd78-04-08.83716.sbd.miller.sbeok.t-flac16
Uploaded by:    germain
DB Link:        http://db.etree.org/shn/83716
Details:        http://bt.etree.org/details.php?id=542034

Contact the seeder at http://db.etree.org/germain

If the link to this show does not work, it was probably removed for
being non-trade-friendly.

Description / text file:
-------------------------
This is a taggged version of shnid: 83716

Grateful Dead 
April 8, 1978
Veteran's Memorial Coliseum 
Jacksonville, FL
gd78-04-08.sbd.miller.83716.sbeok.flac16

Recording Info:
SBD -> Master Reel -> PCM -> Dat (44.1k)

Transfer Info:
Dat -> CD -> Samplitude Professional v9.02 -> FLAC
(3 Discs Audio / 2 Discs FLAC)

All Transfers and Mastering By Charlie Miller
charliemiller87 at earthlink.net
March 23, 2007

Notes:
-- Set 2 is seamless
-- Close Encounters tease in Space
______________________________________________________________________

--Set 1--
101-d1t01 - Mississippi Half-Step Uptown Toodeloo
102-d1t02 - Me And My Uncle ->
103-d1t03 - Big River
104-d1t04 - They Love Each Other
105-d1t05 - Looks Like Rain
106-d1t06 - Deal
107-d1t07 - El Paso
108-d1t08 - It Must Have Been The Roses
109-d1t09 - Lazy Lightnin' ->
110-d1t10 - Supplication

--Set 2--
201-d2t01 - Samson And Delilah
202-d2t02 - Scarlet Begonias ->
203-d2t03 - Fire On The Mountain
204-d3t01 - Estimated Prophet ->
205-d3t02 - Eyes Of The World ->
206-d3t03 - Drums ->
207-d3t04 - Space ->
208-d3t05 - Sugar Magnolia

--Encore--
209-d3t06 - One More Saturday Night
_______________________________________________________________________

Tagging notes:
Show information is embedded within the header of each flac file. 
It will display on any player capable of directly playing flac 
files. If converted to wav during processing, all tags will be 
stripped, however audio data will remain unaffected. If you must 
transcode to a lossy format, do so directly Flac > Lossy.
Use ffp to validate audio integrity.
Md5 values will change if tagging is altered.
B. Proctor 5-10-08


SHNTOOL OUTPUT:
    length     expanded size   cdr  WAVE problems filename
    12:38.02      133715948    ---   --   -----   gd78-04-08d1t01.wav
     3:02.04       32114252    ---   --   -----   gd78-04-08d1t02.wav
     7:11.29       76096652    ---   --   -----   gd78-04-08d1t03.wav
     8:58.26       94964396    ---   --   -----   gd78-04-08d1t04.wav
     9:31.19      100769132    ---   --   -----   gd78-04-08d1t05.wav
     6:32.30       69219404    ---   --   -----   gd78-04-08d1t06.wav
     6:32.14       69181772    ---   --   -----   gd78-04-08d1t07.wav
     9:24.24       99546092    ---   --   -----   gd78-04-08d1t08.wav
     3:44.32       39588908    ---   --   -----   gd78-04-08d1t09.wav
     5:32.20       58611884    ---   --   -----   gd78-04-08d1t10.wav
     8:24.02       88910348    ---   --   -----   gd78-04-08d2t01.wav
    11:33.30      122315804    ---   --   -----   gd78-04-08d2t02.wav
    14:19.67      151685228    ---   --   -----   gd78-04-08d2t03.wav
    11:47.43      124815980    ---   --   -----   gd78-04-08d3t01.wav
    12:01.55      127313804    ---   --   -----   gd78-04-08d3t02.wav
    14:58.36      158491916    ---   --   -----   gd78-04-08d3t03.wav
     6:21.37       67295468    ---   --   -----   gd78-04-08d3t04.wav
    10:56.27      115781948    ---   --   -----   gd78-04-08d3t05.wav
     5:56.63       62946620    ---   --   -----   gd78-04-08d3t06.wav
   169:26.35     1793365556 B                     (totals for 19 files)




More information about the bittorrent mailing list