[bittorrent] gd78-04-07.83715sbd.miller.sbeok.t-flac16

Automated Mailer noreply-bt.e at etree.org
Thu Jan 27 06:40:48 MST 2011


Band:           Grateful Dead
Torrent Name:   gd78-04-07.83715sbd.miller.sbeok.t-flac16
Uploaded by:    germain
DB Link:        http://db.etree.org/shn/83715
Details:        http://bt.etree.org/details.php?id=542033

Contact the seeder at http://db.etree.org/germain

If the link to this show does not work, it was probably removed for
being non-trade-friendly.

Description / text file:
-------------------------
This is a tagged version of shnid: 83715

Grateful Dead  
April 7, 1978
Sportatorium  
Pembroke Pines, FL

Recording Info:
SBD -> Master Reel -> PCM -> Dat (44.1k)

Transfer Info:
Dat -> CD -> Samplitude Professional v9.02 -> FLAC
(3 Discs Audio / 2 Discs FLAC)

All Transfers and Mastering By Charlie Miller
charliemiller87 at earthlink.net
March 23, 2007

Patch Info:
Sony 54P -> Cassette Master -> MiniMe -> Samplitude supplies:
Playing In The Band (7:15 - 7:39)

Notes:
-- Set 2 is seamless
-- Patch source recorded by Robert Wagner
-- Very little stereo seperation on this SBD
__________________________________________________________________________

--Set 1--
101-d1t01 - The Promised Land
102-d1t02 - Sugaree
103-d1t03 - Cassidy
104-d1t04 - Tennessee Jed
105-d1t05 - Mama Tried ->
106-d1t06 - Mexicali Blues
107-d1t07 - Peggy-O
108-d1t08 - Take a Step Back
109-d1t09 - New Minglewood Blues
110-d1t10 - Loser
111-d1t11 - The Music Never Stopped

--Set 2--
201-d2t01 - Tuning
202-d2t02 - Jack Straw
203-d2t03 - Poacher Story
204-d2t04 - Ship of Fools
205-d2t05 - Good Lovin'
206-d3t01 - Terrapin Station ->
207-d3t02 - Playing in the Band ->
208-d3t03 - Drums ->
209-d3t04 - Not Fade Away ->
210-d3t05 - Black Peter ->
211-d3t06 - Playing in the Band

--Encore--
212-d3t07 - Johnny B. Goode
__________________________________________________________________________

Tagging notes:
Show information is embedded within the header of each flac file. 
It will display on any player capable of directly playing flac 
files. If converted to wav during processing, all tags will be 
stripped, however audio data will remain unaffected. If you must 
transcode to a lossy format, do so directly Flac > Lossy.
Use ffp to validate audio integrity.
Md5 values will change if tagging is altered.
B. Proctor 3-13-09
__________________________________________________________________________

SHNTOOL OUTPUT:
    length     expanded size   cdr  WAVE problems filename
     5:41.26       60213596    ---   --   -----   gd78-04-07d1t01.wav
    14:45.48      156226940    ---   --   -----   gd78-04-07d1t02.wav
     6:27.50       68384444    ---   --   -----   gd78-04-07d1t03.wav
    10:22.66      109876076    ---   --   -----   gd78-04-07d1t04.wav
     2:38.37       27958268    ---   --   -----   gd78-04-07d1t05.wav
     4:00.62       42481868    ---   --   -----   gd78-04-07d1t06.wav
     9:35.07      101446508    ---   --   -----   gd78-04-07d1t07.wav
     1:31.35       16134764    ---   --   -----   gd78-04-07d1t08.wav
     7:33.59       80048012    ---   --   -----   gd78-04-07d1t09.wav
     8:42.46       92189036    ---   --   -----   gd78-04-07d1t10.wav
     8:29.66       89942876    ---   --   -----   gd78-04-07d1t11.wav
     1:48.39       19142972    ---   --   -----   gd78-04-07d2t01.wav
     6:59.29       73979852    ---   --   -----   gd78-04-07d2t02.wav
     2:20.50       24813644    ---   --   -----   gd78-04-07d2t03.wav
     9:35.38      101519420    ---   --   -----   gd78-04-07d2t04.wav
     7:45.02       82030748    ---   --   -----   gd78-04-07d2t05.wav
    11:31.16      121930076    ---   --   -----   gd78-04-07d3t01.wav
     9:30.63      100696220    ---   --   -----   gd78-04-07d3t02.wav
    11:09.21      118061036    ---   --   -----   gd78-04-07d3t03.wav
    10:32.18      111527180    ---   --   -----   gd78-04-07d3t04.wav
    10:27.41      110699276    ---   --   -----   gd78-04-07d3t05.wav
     5:58.66       63306476    ---   --   -----   gd78-04-07d3t06.wav
     4:16.18       45200780    ---   --   -----   gd78-04-07d3t07.wav
   171:45.03     1817810068 B                     (totals for 23 files)




More information about the bittorrent mailing list