[bittorrent] PHiSH.:-:. @ MSG- NYC, NY 2010-12-30.m210.flac16

Automated Mailer noreply-bt.e at etree.org
Wed Jan 26 16:26:44 MST 2011


Band:           Phish
Torrent Name:   PHiSH.:-:. @ MSG- NYC, NY 2010-12-30.m210.flac16
Uploaded by:    newplanet7
DB Link:        
Details:        http://bt.etree.org/details.php?id=542009

Contact the seeder at http://db.etree.org/newplanet7

If the link to this show does not work, it was probably removed for
being non-trade-friendly.

Description / text file:
-------------------------
PHiSH
December 30, 2010
@ MSG
NYC, NY


SOURCE:
Microtech Gefell m210~> Oade m248~> SBM 1~> D8~> Tascam CDRW2000
OTS/SEC 10/ROW B

RECORDING & SOURCE DISCS:
Jon Pasternak

CDR~> EAC(error free)~> WAV~>
Traders Little Helper(SBE's,FLAC LVL8)~>
Foobar 2000 Live Show Tagger
DONE BY newplanet7 On 1/26/2011


SET ONE/DISC ONE:
01) Cities
02) Chalkdust Torture
03) Gumbo ~>
04) Quinn The Eskimo
05) Halley's Comet ~>
06) Camel Walk
07) Maze
08) Driver
09) Bathtub Gin
10) Fat Man In The Bathtub
   
DISC TWO
01) Timber (Jerry)
02) Golgi Apparatus
03) Character Zero
SET TWO:
04) Tweezer ~>
05) Light ~>
06) Theme From The Bottom ~>
07) My Friend, My Friend ~>
08) Axilla
09) Fluffhead
   
DISC THREE
01) Boogie On Reggae Woman ~>
02) 2001 ~>
03) Suzie Greenberg
ENCORE
04) Run Like An Antelope ~>
05) Tweezer Reprise

    length     expanded size    cdr  WAVE problems  fmt   ratio  filename
     5:52.59       62231612 B   ---   --   -----    wav  1.0000  ph2010-12-30d1t01.wav
     6:24.45       67843484 B   ---   --   -----    wav  1.0000  ph2010-12-30d1t02.wav
     4:57.25       52449644 B   ---   --   -----    wav  1.0000  ph2010-12-30d1t03.wav
     4:22.07       46233308 B   ---   --   -----    wav  1.0000  ph2010-12-30d1t04.wav
     6:15.11       66175916 B   ---   --   -----    wav  1.0000  ph2010-12-30d1t05.wav
     5:02.05       53284604 B   ---   --   -----    wav  1.0000  ph2010-12-30d1t06.wav
    10:25.34      110330012 B   ---   --   -----    wav  1.0000  ph2010-12-30d1t07.wav
     4:26.14       46955372 B   ---   --   -----    wav  1.0000  ph2010-12-30d1t08.wav
    13:12.21      139758236 B   ---   --   -----    wav  1.0000  ph2010-12-30d1t09.wav
     5:01.50       53214044 B   ---   --   -----    wav  1.0000  ph2010-12-30d1t10.wav
     6:30.30       68866604 B   ---   --   -----    wav  1.0000  ph2010-12-30d2t01.wav
     4:45.16       50311676 B   ---   --   -----    wav  1.0000  ph2010-12-30d2t02.wav
     7:30.74       79554092 B   ---   --   -----    wav  1.0000  ph2010-12-30d2t03.wav
    19:06.37      202241468 B   ---   --   -----    wav  1.0000  ph2010-12-30d2t04.wav
     9:42.45      102770684 B   ---   --   -----    wav  1.0000  ph2010-12-30d2t05.wav
     7:15.02       76738748 B   ---   --   -----    wav  1.0000  ph2010-12-30d2t06.wav
     5:35.04       59103452 B   ---   --   -----    wav  1.0000  ph2010-12-30d2t07.wav
     3:22.10       35656364 B   ---   --   -----    wav  1.0000  ph2010-12-30d2t08.wav
    14:09.09      149784812 B   ---   --   -----    wav  1.0000  ph2010-12-30d2t09.wav
     5:18.41       56191676 B   ---   --   -----    wav  1.0000  ph2010-12-30d3t01.wav
     6:59.66       74066876 B   ---   --   -----    wav  1.0000  ph2010-12-30d3t02.wav
     7:37.06       80628956 B   ---   --   -----    wav  1.0000  ph2010-12-30d3t03.wav
    10:57.16      115932476 B   ---   --   -----    wav  1.0000  ph2010-12-30d3t04.wav
     3:49.23       40449740 B   ---   --   -----    wav  1.0000  ph2010-12-30d3t05.wav
   178:38.50     1890773856 B                            1.0000  (24 files)





More information about the bittorrent mailing list