[bittorrent] Disco Biscuits Now Sapphire (On The Beach) Riviera Cancun, Mexico 1/23/2011 (Schoeps CCM4V'S FOB)

Automated Mailer noreply-bt.e at etree.org
Tue Jan 25 17:01:18 MST 2011


Band:           Disco Biscuits
Torrent Name:   Disco Biscuits Now Sapphire (On The Beach) Riviera Cancun, Mexico 1/23/2011 (Schoeps CCM4V'S FOB)
Uploaded by:    zmanatl
DB Link:        
Details:        http://bt.etree.org/details.php?id=541973

Contact the seeder at http://db.etree.org/zmanatl

If the link to this show does not work, it was probably removed for
being non-trade-friendly.

Description / text file:
-------------------------
Disco Biscuits (Tractor Beam)
Mayan Holidaze
Now Sapphire Resort - On The Beach
Riviera Cancun, Mexico
1/23/2011

Source: Schoeps CCM4V'S(din)>Lunatec V2>Benchmark AD2K>
Sound Devices 722 (24/48)
FOB/FOC/DFC/KFC/ZFC/AARP 60' From Stage, 7' High
DSP: Sound Devices 722>Sound Forge 9.0>CD Wave>flac(16)
Recorded By: Z-Man
Seeded By: Z-Man

Disc I 

01 Tuning
02 Mirrors >
03 Paper Cut >
04 The Great Abyss (Inverted) >

Disc II 

01 Orchestra Theme >
02 Aquatic Ape >
03 Mindless Dribble (Dub Version) >
04 Lunar Pursuit >
05 Svengali
Encore:
06 Overture

* The Set Was Played in a Constantly Heavy Wind. You Can Hear Some Wind In The Recording, But It Is Very   Listenable.

Flac Fingerprint 

disco2011-01-23d01t01.flac:1627c3b8ffdfe6db61cdc8d2bdf90fd2
disco2011-01-23d01t02.flac:5febda9a1413846c76dcae29a22ee779
disco2011-01-23d01t03.flac:4c367e340c10bc1785dcaee9efef50c3
disco2011-01-23d01t04.flac:6a5895899ee965bb28bedb1915330c1b
disco2011-01-23d02t01.flac:823665336ee9df6fd2babf1b7b6ad458
disco2011-01-23d02t02.flac:69d15cf05d71f688fdca25905331764c
disco2011-01-23d02t03.flac:5a772ef579d537d5fc03e81d3123995f
disco2011-01-23d02t04.flac:4d2208b7058cb40eaeec40ae1965e520
disco2011-01-23d02t05.flac:01962a764dd4437261d90454402d5083
disco2011-01-23d02t06.flac:7dbc3fdfe12ea703557b24ef2032b7db

Shntool 

    length     expanded size    cdr  WAVE problems  fmt   ratio  filename
     0:31.20        5515484 B   ---   --   ---xx   flac  0.2344  disco2011-01-23d01t01.flac
    15:50.61      167723516 B   ---   --   ---xx   flac  0.5103  disco2011-01-23d01t02.flac
    19:00.08      201114860 B   ---   --   ---xx   flac  0.5219  disco2011-01-23d01t03.flac
     3:51.46       40856636 B   ---   --   ---xx   flac  0.4883  disco2011-01-23d01t04.flac
     6:40.69       70722332 B   ---   --   ---xx   flac  0.5094  disco2011-01-23d02t01.flac
    11:15.04      119079452 B   ---   --   ---xx   flac  0.4599  disco2011-01-23d02t02.flac
     5:01.73       53268140 B   ---   --   ---xx   flac  0.5066  disco2011-01-23d02t03.flac
     6:42.37       70999868 B   ---   --   ---xx   flac  0.4562  disco2011-01-23d02t04.flac
     7:49.43       82832780 B   ---   --   ---xx   flac  0.4837  disco2011-01-23d02t05.flac
     7:45.68       82185980 B   ---   --   ---xx   flac  0.4466  disco2011-01-23d02t06.flac
    84:29.54      894299048 B                            0.4906  (10 files)






More information about the bittorrent mailing list