[bittorrent] Umphrey's McGee Now Sapphire (On The Beach) Riviera Cancun, Mexico 1/23/2011 (Schoeps CCM4V'S FOB)

Automated Mailer noreply-bt.e at etree.org
Mon Jan 24 20:36:45 MST 2011


Band:           Umphrey's McGee
Torrent Name:   Umphrey's McGee Now Sapphire (On The Beach) Riviera Cancun, Mexico 1/23/2011 (Schoeps CCM4V'S FOB)
Uploaded by:    zmanatl
DB Link:        
Details:        http://bt.etree.org/details.php?id=541954

Contact the seeder at http://db.etree.org/zmanatl

If the link to this show does not work, it was probably removed for
being non-trade-friendly.

Description / text file:
-------------------------
Umphrey's McGee (Elaga La Musica)
Mayan Holidaze
Now Sapphire Resort - On The Beach
Riviera Cancun, Mexico
1/23/2011

Source: Schoeps CCM4V'S(din)>Lunatec V2>Benchmark AD2K>
Sound Devices 722 (24/48)
FOB/FOC/DFC/KFC/ZFC/AARP 60' From Stage, 7' High
DSP: Sound Devices 722>Sound Forge 9.0>CD Wave>flac(16)
Recorded By: Z-Man
Seeded By: Z-Man

Disc I 

01 Soul Food Part I >
02 Soul Food Part II >
03 Wife Soup >
04 Jimmy Stewart >
05 All Things Ninja >
06 Drum Solo >
07 All Things Ninja

Disc II 

01 Pay The Snucka >
02 Quebert >
03 Der Bluten Kat >
04 I'm On Fire >
05 Der Bluten Kat >
06 Orfeo >
07 Der Bluten Kat
08 Outro Steelers Rally Song
09 Annibel Announcements

* The Set Was Played in a heavy wind. You Can Hear Some Wind In The Recording, But It Is Very Listenable as I really enjoyed Their Request Set.

Flac Fingerprint 

um2011-01-23d01t01.flac:78b166d6bf79eaa53e6597f964749648
um2011-01-23d01t02.flac:e905068c8dddf39dcd3e01cd46352670
um2011-01-23d01t03.flac:c2497986a27e810bc728ea873a4f82f3
um2011-01-23d01t04.flac:8e42ddb42ad8b159918e8ee0378d7659
um2011-01-23d01t05.flac:7badfeb59b8c449d7c7f567e5c2945bd
um2011-01-23d01t06.flac:afc10481d6c4f0b4f71edc44d8ee9bb2
um2011-01-23d01t07.flac:8c03775972b9cd14877305c82bf48ed2
um2011-01-23d02t01.flac:0cde06496cc9464342082a612732f604
um2011-01-23d02t02.flac:df1971f00a98f9642836034ac8fa2b13
um2011-01-23d02t03.flac:4c01ef7cad8dc291816c0705f2b02db8
um2011-01-23d02t04.flac:edf1e2fa3f21068efda72294f3a47bf2
um2011-01-23d02t05.flac:26d2abbe9a60b227bd6781e94a6fb064
um2011-01-23d02t06.flac:b6eba2800edc6d036402f2a74da02e88
um2011-01-23d02t07.flac:2be4de073b72978528dce2f20b2f16e7
um2011-01-23d02t08.flac:3f46eb052fa81e341fc0535c54b91d55
um2011-01-23d02t09.flac:8152625364c7694bf5e659fb833ff1f2

Shntool 

    length     expanded size    cdr  WAVE problems  fmt   ratio  filename
    11:28.27      121426748 B   ---   --   ---xx   flac  0.4588  um2011-01-23d01t01.flac
     6:17.27       66566348 B   ---   --   ---xx   flac  0.4299  um2011-01-23d01t02.flac
     8:24.55       89035004 B   ---   --   ---xx   flac  0.4379  um2011-01-23d01t03.flac
     5:49.39       61655372 B   ---   --   ---xx   flac  0.4416  um2011-01-23d01t04.flac
     8:56.37       94637468 B   ---   --   ---xx   flac  0.4370  um2011-01-23d01t05.flac
     1:26.00       15170444 B   ---   --   ---xx   flac  0.4540  um2011-01-23d01t06.flac
     1:56.23       20516540 B   ---   --   ---xx   flac  0.4478  um2011-01-23d01t07.flac
    10:12.11      107982716 B   ---   --   ---xx   flac  0.4508  um2011-01-23d02t01.flac
     9:26.07       99858908 B   ---   --   ---xx   flac  0.4176  um2011-01-23d02t02.flac
     6:57.16       73596476 B   ---   --   ---xx   flac  0.4399  um2011-01-23d02t03.flac
     2:48.72       29804588 B   ---   --   ---xx   flac  0.3938  um2011-01-23d02t04.flac
     1:23.13       14671820 B   ---   --   ---xx   flac  0.5186  um2011-01-23d02t05.flac
     5:16.42       55841228 B   ---   --   ---xx   flac  0.3974  um2011-01-23d02t06.flac
     3:15.73       34569740 B   ---   --   ---xx   flac  0.4855  um2011-01-23d02t07.flac
     0:55.06        9716156 B   ---   --   ---xx   flac  0.3844  um2011-01-23d02t08.flac
     3:44.65       39666524 B   ---   --   ---xx   flac  0.3574  um2011-01-23d02t09.flac
    88:18.63      934716080 B                            0.4354  (16 files)





More information about the bittorrent mailing list