[bittorrent] The Album Leaf Now Sapphire (On The Beach) Riviera Cancun, Mexico 1/23/2011 (Schoeps CCM4V'S FOB)

Automated Mailer noreply-bt.e at etree.org
Sun Jan 23 19:37:12 MST 2011


Band:           Other
Torrent Name:   The Album Leaf Now Sapphire (On The Beach) Riviera Cancun, Mexico 1/23/2011 (Schoeps CCM4V'S FOB)
Uploaded by:    zmanatl
DB Link:        
Details:        http://bt.etree.org/details.php?id=541921

Contact the seeder at http://db.etree.org/zmanatl

If the link to this show does not work, it was probably removed for
being non-trade-friendly.

Description / text file:
-------------------------
The Album Leaf
Mayan Holidaze
Now Sapphire Resort - On The Beach
Riviera Cancun, Mexico
1/23/2011

Source: Schoeps CCM4V'S(din)>Lunatec V2>Benchmark AD2K>
Sound Devices 722 (24/48)
FOB/FOC/DFC/KFC/ZFC/AARP 60' From Stage, 7' High
DSP: Sound Devices 722>Sound Forge 9.0>CD Wave>flac(16)
Recorded By: Z-Man
Seeded By: Z-Man

Disc I 

01 Introduction By Annibel
02 Wet Day >
03 Essex
04 Falling 
05 2214 >
06 See In You
07 On Your Way
08 Stand Still >
09 Outer Banks

Disc II 

01 Brennguin >
02 Another > 
03 There Wind
04 We Are
05 Red Eye > 
06 Vermillion >
07 Malmo

* The Set Was Played in a heavy wind. You Can Hear Some Wind In The Recording, But It Is Very Listenable as I really enjoyed Their Set.

Flac Fingerprint 

albumleaf2011-01-23d01t01.flac:cb71715d2c9176730fc51b9df4f774ee
albumleaf2011-01-23d01t02.flac:bbc0d7068269fbf098addb2ca25c5ef9
albumleaf2011-01-23d01t03.flac:732b72abd6325a48600a751f163e2378
albumleaf2011-01-23d01t04.flac:6dfde54e6719ae0a70f3cf2e7db83bc2
albumleaf2011-01-23d01t05.flac:56ce8c618d2b759efd138d4ca28b4fa9
albumleaf2011-01-23d01t06.flac:2c1389b4d60105fe1f6fc0a70e8e40e6
albumleaf2011-01-23d01t07.flac:49257fd3686438fc64f16161c7c09dc1
albumleaf2011-01-23d01t08.flac:6b900357f7f800d3c8b37c005a97240d
albumleaf2011-01-23d01t09.flac:105b6e4c7fdc1dd0cff71e14b79f0f42
albumleaf2011-01-23d02t01.flac:ed2f0c329eaac7a679f7ef3a8320589c
albumleaf2011-01-23d02t02.flac:33b0bb9e3a08b79c74184d1f0305f017
albumleaf2011-01-23d02t03.flac:f7eb470106f313587a757d283af3c16d
albumleaf2011-01-23d02t04.flac:5b8b6731f2554df1b98d70d9df2681e6
albumleaf2011-01-23d02t05.flac:b14201b06a18f7fec1180d955c947d7e
albumleaf2011-01-23d02t06.flac:cceb63f71036b19639dc07afc3d611cd
albumleaf2011-01-23d02t07.flac:8e5fe415576e01db4916a411f9c5cdf9

Shntool 

    length     expanded size    cdr  WAVE problems  fmt   ratio  filename
     2:16.54       24117452 B   ---   --   ---xx   flac  0.3895  albumleaf2011-01-23d01t01.flac
     5:21.03       56631500 B   ---   --   ---xx   flac  0.5054  albumleaf2011-01-23d01t02.flac
     5:11.59       54999212 B   ---   --   ---xx   flac  0.4352  albumleaf2011-01-23d01t03.flac
     5:19.41       56368076 B   ---   --   ---xx   flac  0.3779  albumleaf2011-01-23d01t04.flac
     5:32.20       58611884 B   ---   --   ---xx   flac  0.4027  albumleaf2011-01-23d01t05.flac
     5:10.44       54787532 B   ---   --   ---xx   flac  0.2874  albumleaf2011-01-23d01t06.flac
     4:32.31       48053756 B   ---   --   ---xx   flac  0.3889  albumleaf2011-01-23d01t07.flac
     4:49.29       51047852 B   ---   --   ---xx   flac  0.4781  albumleaf2011-01-23d01t08.flac
     4:25.62       46891868 B   ---   --   ---xx   flac  0.4442  albumleaf2011-01-23d01t09.flac
     5:00.42       53018828 B   ---   --   ---xx   flac  0.3968  albumleaf2011-01-23d02t01.flac
     3:51.02       40753148 B   ---   --   ---xx   flac  0.3934  albumleaf2011-01-23d02t02.flac
     5:57.37       63061868 B   ---   --   ---xx   flac  0.4533  albumleaf2011-01-23d02t03.flac
     6:02.20       63903884 B   ---   --   ---xx   flac  0.3568  albumleaf2011-01-23d02t04.flac
     6:56.35       73464764 B   ---   --   ---xx   flac  0.4321  albumleaf2011-01-23d02t05.flac
     5:38.24       59679692 B   ---   --   ---xx   flac  0.4869  albumleaf2011-01-23d02t06.flac
     8:00.47       84782588 B   ---   --   ---xx   flac  0.3783  albumleaf2011-01-23d02t07.flac
    84:06.25      890173904 B                            0.4132  (16 files)











More information about the bittorrent mailing list