[bittorrent] Disco Biscuits Now Sapphire (On The Beach) Riviera Cancun, Mexico 1/22/2011 (Schoeps CCM4V'S FOB)

Automated Mailer noreply-bt.e at etree.org
Sun Jan 23 11:30:50 MST 2011


Band:           Disco Biscuits
Torrent Name:   Disco Biscuits Now Sapphire (On The Beach) Riviera Cancun, Mexico 1/22/2011 (Schoeps CCM4V'S FOB)
Uploaded by:    zmanatl
DB Link:        
Details:        http://bt.etree.org/details.php?id=541907

Contact the seeder at http://db.etree.org/zmanatl

If the link to this show does not work, it was probably removed for
being non-trade-friendly.

Description / text file:
-------------------------
Disco Biscuits
Mayan Holidaze
Now Sapphire Resort - On The Beach
Riviera Cancun, Mexico
1/22/2011

Source: Schoeps CCM4V'S(din)>Lunatec V2>Benchmark AD2K>
Sound Devices 722 (24/48)
FOB/FOC/DFC/KFC/ZFC/AARP 60' From Stage, 7' High
DSP: Sound Devices 722>Sound Forge 9.0>CD Wave>flac(16)
Recorded By: Z-Man
Seeded By: Z-Man

Disc I 1st Set

01 Introduction By Annibel
02 Very Moon >
03 Spray Paint >
04 Hellicoptors ?
05 I-Man >
06 Spray Paint

Disc II 2nd Set

01 Mark Banter
02 Ladies >
03 Above The Waves >
04 Catalyst >
05 I-Man
Encore:
06 Mark Banter
07 Orch Theme

Flac Fingerprint 

disco2011-01-22d01t01.flac:6eba27896406fb2a2066d3400cb508e3
disco2011-01-22d01t02.flac:4f2e052918ba0275368289423659ae7d
disco2011-01-22d01t03.flac:2a92617b6f4b7c2ba9c7b1a6b3949f76
disco2011-01-22d01t04.flac:e090878f6c9a027bf80c9471a161c630
disco2011-01-22d01t05.flac:32f42024e770e65e45bd76e4a63bd95b
disco2011-01-22d01t06.flac:421263329cf81fd4945e6e26ff27854c
disco2011-01-22d02t01.flac:85223db0ebc66a231d3ca8d6e93fb04f
disco2011-01-22d02t02.flac:411f0887c7bdf596745d02d6592a0123
disco2011-01-22d02t03.flac:a7390f105b8b46fee94c46a5c7bec64c
disco2011-01-22d02t04.flac:2c67aad81057736994e34f4b8979b325
disco2011-01-22d02t05.flac:3bbfaaa17902da79ac5394fca5194c4b
disco2011-01-22d02t06.flac:74e8db383adcb2ca4a34b7fb748fbe14
disco2011-01-22d02t07.flac:392976e6dde64ed8fdfef4bc1a763876

Shntool 

    length     expanded size    cdr  WAVE problems  fmt   ratio  filename
     1:24.74       14991692 B   ---   --   ---xx   flac  0.3370  disco2011-01-22d01t01.flac
    23:52.36      252689516 B   ---   --   ---xx   flac  0.4934  disco2011-01-22d01t02.flac
    20:21.51      215504396 B   ---   --   ---xx   flac  0.5114  disco2011-01-22d01t03.flac
    15:27.59      163661612 B   ---   --   ---xx   flac  0.5194  disco2011-01-22d01t04.flac
    12:21.06      130726556 B   ---   --   ---xx   flac  0.4864  disco2011-01-22d01t05.flac
     2:07.16       22440476 B   ---   --   ---xx   flac  0.4222  disco2011-01-22d01t06.flac
     1:21.64       14438972 B   ---   --   ---xx   flac  0.3273  disco2011-01-22d02t01.flac
    27:41.37      293087468 B   ---   --   ---xx   flac  0.5003  disco2011-01-22d02t02.flac
    14:27.32      153014108 B   ---   --   ---xx   flac  0.4679  disco2011-01-22d02t03.flac
    19:23.58      205289660 B   ---   --   ---xx   flac  0.5024  disco2011-01-22d02t04.flac
     3:03.22       32332988 B   ---   --   ---xx   flac  0.4560  disco2011-01-22d02t05.flac
     0:47.35        8373164 B   ---   --   ---xx   flac  0.3358  disco2011-01-22d02t06.flac
     9:17.53       98379500 B   ---   --   ---xx   flac  0.4543  disco2011-01-22d02t07.flac
   151:38.18     1604930108 B                            0.4900  (13 files)











More information about the bittorrent mailing list