[bittorrent] The Album Leaf Now Sapphire (On The Beach) Riviera Cancun, Mexico 1/21/2011 (Schoeps CCM4V'S FOB)

Automated Mailer noreply-bt.e at etree.org
Sun Jan 23 10:37:15 MST 2011


Band:           Other
Torrent Name:   The Album Leaf Now Sapphire (On The Beach) Riviera Cancun, Mexico 1/21/2011 (Schoeps CCM4V'S FOB)
Uploaded by:    zmanatl
DB Link:        
Details:        http://bt.etree.org/details.php?id=541903

Contact the seeder at http://db.etree.org/zmanatl

If the link to this show does not work, it was probably removed for
being non-trade-friendly.

Description / text file:
-------------------------
The Album Leaf
Mayan Holidaze
Now Sapphire Resort - On The Beach
Riviera Cancun, Mexico
1/21/2011

Source: Schoeps CCM4V'S(din)>Lunatec V2>Benchmark AD2K>
Sound Devices 722 (24/48)
FOB/FOC/ITS/DFC/KFC/ZFC/AARP 60' From Stage, 7' High
DSP: Sound Devices 722>Sound Forge 9.0>CD Wave>flac(16)
Recorded By: Z-Man
Seeded By: Z-Man

Disc I 

01 Introduction By Annibel
02 Until The Last
03 There Wind
04 Dreams
05 Falling
06 stand Still
07 We Are
08 2214
09 Instrumental >
10 Wherever >
11 Outer Banks
12 On Your Way
13 Red Eye >
14 Vermillion >
15 Almost >
16 Broken Arrow 

* The Set Was Played Even Though There Was A Steady Downpour. I Felt Bad For These Guys As The Rain Kept Folks Off The Beach. You Can Hear Some Wind And Rain In The Recording, But It Is Very Listenable as I really enjoyed Their Set.

Flac Fingerprint 

albumleaf2011-01-21d01t01.flac:3dd8f365031847f4ec4116c07c2f29d8
albumleaf2011-01-21d01t02.flac:646136d570e3bc845a63f381c53dcae6
albumleaf2011-01-21d01t03.flac:f7a52753008de57fdbf4d7d5376e9e24
albumleaf2011-01-21d01t04.flac:88fc43c650a7e7738bc380015a286a73
albumleaf2011-01-21d01t05.flac:7fe4ea6ad7b214b7c14c1ff1a56bdfd4
albumleaf2011-01-21d01t06.flac:ea94b48f6946e6dd5fdc7e65bff8037a
albumleaf2011-01-21d01t07.flac:2e61a13c1e9f25f993ff6b71f84e0e41
albumleaf2011-01-21d01t08.flac:8d3eb4d6ec3b994c65e37bbcb074591a
albumleaf2011-01-21d01t09.flac:7738d5beeedae7d6336bad5b0b2ae82c
albumleaf2011-01-21d01t10.flac:32556222b48f31652576dcad731b612b
albumleaf2011-01-21d01t11.flac:961a5474faf1e9ae4f1d1f41b8da372a
albumleaf2011-01-21d01t12.flac:9c54288f781d36ae1f1373b0c7dc210f
albumleaf2011-01-21d01t13.flac:109f815363ac8fb85fdfda795e226dcf
albumleaf2011-01-21d01t14.flac:b40a317f9310e55fcd6b3d46f8e5b1df
albumleaf2011-01-21d01t15.flac:7a073035d176867973156f7594e9f6f4
albumleaf2011-01-21d01t16.flac:74bd689ca701737a1ce9d0680f36f718

Shntool 

    length     expanded size    cdr  WAVE problems  fmt   ratio  filename
     0:34.24        6054092 B   ---   --   ---xx   flac  0.2923  albumleaf2011-01-21d01t01.flac
     5:48.19       61431932 B   ---   --   ---xx   flac  0.3498  albumleaf2011-01-21d01t02.flac
     5:43.24       60561692 B   ---   --   ---xx   flac  0.4440  albumleaf2011-01-21d01t03.flac
     4:47.19       50671532 B   ---   --   ---xx   flac  0.3705  albumleaf2011-01-21d01t04.flac
     5:01.12       53124668 B   ---   --   ---xx   flac  0.3666  albumleaf2011-01-21d01t05.flac
     4:51.18       51374780 B   ---   --   ---xx   flac  0.4250  albumleaf2011-01-21d01t06.flac
     4:36.33       48764060 B   ---   --   ---xx   flac  0.3253  albumleaf2011-01-21d01t07.flac
     5:47.08       61229660 B   ---   --   ---xx   flac  0.3505  albumleaf2011-01-21d01t08.flac
     5:12.68       55196780 B   ---   --   ---xx   flac  0.3508  albumleaf2011-01-21d01t09.flac
     3:57.53       41931500 B   ---   --   ---xx   flac  0.4042  albumleaf2011-01-21d01t10.flac
     4:43.71       50088236 B   ---   --   ---xx   flac  0.3901  albumleaf2011-01-21d01t11.flac
     4:39.57       49349708 B   ---   --   ---xx   flac  0.3614  albumleaf2011-01-21d01t12.flac
     7:02.65       74593724 B   ---   --   ---xx   flac  0.3921  albumleaf2011-01-21d01t13.flac
     5:28.67       58016828 B   ---   --   ---xx   flac  0.4675  albumleaf2011-01-21d01t14.flac
     5:15.18       55608380 B   ---   --   ---xx   flac  0.4086  albumleaf2011-01-21d01t15.flac
     6:03.04       64042652 B   ---   --   ---xx   flac  0.3646  albumleaf2011-01-21d01t16.flac
    79:33.35      842040224 B                            0.3844  (16 files)







More information about the bittorrent mailing list