[bittorrent] Brendan Bayliss & Jeff Austin Now Sapphire (On The Beach) Riviera Cancun, Mexico 1/22/2011 (Schoeps CCM4V'S FOB)

Automated Mailer noreply-bt.e at etree.org
Sun Jan 23 08:42:42 MST 2011


Band:           Other
Torrent Name:   Brendan Bayliss & Jeff Austin Now Sapphire (On The Beach) Riviera Cancun, Mexico 1/22/2011 (Schoeps CCM4V'S FOB)
Uploaded by:    zmanatl
DB Link:        
Details:        http://bt.etree.org/details.php?id=541900

Contact the seeder at http://db.etree.org/zmanatl

If the link to this show does not work, it was probably removed for
being non-trade-friendly.

Description / text file:
-------------------------
Brendan Bayliss And Jeff Austin Acoustic Duet
Mayan Holidaze
Now Sapphire Resort - On The Beach
Riviera Cancun, Mexico
1/22/2011

Source: Schoeps CCM4V'S(din)>Lunatec V2>Benchmark AD2K>
Sound Devices 722 (24/48)
FOB/FOC/DFC/KFC/ZFC/AARP 60' From Stage, 7' High
DSP: Sound Devices 722>Sound Forge 9.0>CD Wave>flac(16)
Recorded By: Z-Man
Seeded By: Z-Man

Disc I 

01 Greeting/Tuning
02 ?
03 Susanah
04 Banter
05 One Man Show
06 Hand Shake Drugs >
07 Instrumental
08 Banter
09 Always Up
10 Banter
11 Instrumental >
12 One More
13 Banter
14 Backbone
15 Easy Rocker
16 Banter
17 Liar 
18 The Good Times Are Killin' Me
19 Chicago Bears Outro Music

* It Was VeryWindy Throughout The Entire Performance And IS Present On The Recording.

Flac Fingerprint 

bayliss-austin2011-01-22d01t01.flac:2e46783c06052d1bc2726c2417ba1eac
bayliss-austin2011-01-22d01t02.flac:4c0f0b3668a6b3cc63e80acd72523871
bayliss-austin2011-01-22d01t03.flac:e79082a1388619a9b300b6a53713f6cc
bayliss-austin2011-01-22d01t04.flac:92215677db8ada93a8333415ad10d514
bayliss-austin2011-01-22d01t05.flac:dc43c0c0e64ad7c162b1dde0fdaa4e34
bayliss-austin2011-01-22d01t06.flac:a42dfcd6bcc26e5b51700aaaed76851c
bayliss-austin2011-01-22d01t07.flac:f473b71ec1839edc01c16bce3d42ed56
bayliss-austin2011-01-22d01t08.flac:7dc75e203d91c94970d8a045cdf62a86
bayliss-austin2011-01-22d01t09.flac:8f6c8ea5368b07970071caaa4a8d20f8
bayliss-austin2011-01-22d01t10.flac:717a34896c3d84a63f7d49bfd91e8fc1
bayliss-austin2011-01-22d01t11.flac:6476946a91b01fa9e6f6601995176d61
bayliss-austin2011-01-22d01t12.flac:1819976e86d2f3660ef9d59beea9134f
bayliss-austin2011-01-22d01t13.flac:601d9ea1c044ab6a6700b3d20c8a951d
bayliss-austin2011-01-22d01t14.flac:94b1e9ed6351d390d762dd3be1362a7a
bayliss-austin2011-01-22d01t15.flac:3ea9961e775987ea1558c631521e2a6a
bayliss-austin2011-01-22d01t16.flac:c9029e7a9343a3afb060aa3c6806bda2
bayliss-austin2011-01-22d01t17.flac:78dc87b59efbaedc76e2c0cc27997d78
bayliss-austin2011-01-22d01t18.flac:782ac782cb7e73b0e9b82c3974d1b4fb
bayliss-austin2011-01-22d01t19.flac:a07f66d30149d4d13db00c0b184b7979

Shntool 

    length     expanded size    cdr  WAVE problems  fmt   ratio  filename
     0:24.31        4306556 B   ---   --   ---xx   flac  0.2947  bayliss-austin2011-01-22d01t01.flac
     7:15.00       76734044 B   ---   --   ---xx   flac  0.4164  bayliss-austin2011-01-22d01t02.flac
     4:49.60       51120764 B   ---   --   ---xx   flac  0.4509  bayliss-austin2011-01-22d01t03.flac
     1:42.11       18018716 B   ---   --   ---xx   flac  0.3213  bayliss-austin2011-01-22d01t04.flac
     5:38.03       59630300 B   ---   --   ---xx   flac  0.4051  bayliss-austin2011-01-22d01t05.flac
     7:16.71       77077436 B   ---   --   ---xx   flac  0.4455  bayliss-austin2011-01-22d01t06.flac
     2:55.22       30921788 B   ---   --   ---xx   flac  0.3770  bayliss-austin2011-01-22d01t07.flac
     1:52.10       19780364 B   ---   --   ---xx   flac  0.3355  bayliss-austin2011-01-22d01t08.flac
     2:56.17       31086428 B   ---   --   ---xx   flac  0.4439  bayliss-austin2011-01-22d01t09.flac
     1:46.26       18759596 B   ---   --   ---xx   flac  0.3420  bayliss-austin2011-01-22d01t10.flac
     3:47.49       40158092 B   ---   --   ---xx   flac  0.3974  bayliss-austin2011-01-22d01t11.flac
     4:10.48       44212940 B   ---   --   ---xx   flac  0.4424  bayliss-austin2011-01-22d01t12.flac
     1:58.62       20961068 B   ---   --   ---xx   flac  0.3252  bayliss-austin2011-01-22d01t13.flac
     5:06.43       54079580 B   ---   --   ---xx   flac  0.3869  bayliss-austin2011-01-22d01t14.flac
     4:36.71       48853436 B   ---   --   ---xx   flac  0.4631  bayliss-austin2011-01-22d01t15.flac
     1:49.54       19354652 B   ---   --   ---xx   flac  0.3238  bayliss-austin2011-01-22d01t16.flac
     5:41.04       60161852 B   ---   --   ---xx   flac  0.4393  bayliss-austin2011-01-22d01t17.flac
     5:44.28       60747500 B   ---   --   ---xx   flac  0.4559  bayliss-austin2011-01-22d01t18.flac
     2:36.19       27563132 B   ---   --   ---xx   flac  0.4628  bayliss-austin2011-01-22d01t19.flac
    72:08.29      763528244 B                            0.4166  (19 files)










More information about the bittorrent mailing list