[bittorrent] Disco Biscuits Now Sapphire (On The Beach) Riviera Cancun, Mexico 1/21/2011 (Schoeps CCM4V'S FOB)

Automated Mailer noreply-bt.e at etree.org
Sat Jan 22 17:54:39 MST 2011


Band:           Disco Biscuits
Torrent Name:   Disco Biscuits Now Sapphire (On The Beach) Riviera Cancun, Mexico 1/21/2011 (Schoeps CCM4V'S FOB)
Uploaded by:    zmanatl
DB Link:        )
Details:        http://bt.etree.org/details.php?id=541887

Contact the seeder at http://db.etree.org/zmanatl

If the link to this show does not work, it was probably removed for
being non-trade-friendly.

Description / text file:
-------------------------
Disco Biscuits
Mayan Holidaze
Now Sapphire Resort - On The Beach
Riviera Cancun, Mexico
1/21/2011

Source: Schoeps CCM4V'S(din)>Lunatec V2>Benchmark AD2K>
Sound Devices 722 (24/48)
FOB/FOC/DFC/KFC/ZFC/AARP 60' From Stage, 7' High
DSP: Sound Devices 722>Sound Forge 9.0>CD Wave>flac(16)
Recorded By: Z-Man
Seeded By: Z-Man

Disc I 1st Set

01 Crowd/Tuning
02 Strobelights And Martinis >
03 King Of The World
04 Neck Romances
05 Crickets >
06 Portal To An Empty Head >
07 Crickets

Disc II 2nd Set

01 Intro Music/Tuning
02 Story Of The World >
03 Voices Insane >
04 Bombs >
05 Housedog Party Favor
06 Banter On Festival
07 Shelby Rose
Encore: 
08 Thanks/Banter
09 *On Time

* With Ryan Stasik Of Umphrey's McGee On Bass

Flac Fingerprint 

disco2011-01-21d01t01.flac:50fbc0ad627393993d17ffab4d44f40e
disco2011-01-21d01t02.flac:19ed965c20971681f8d4bca2e634bfee
disco2011-01-21d01t03.flac:f3625954c24c6d8b9c9befe5c1aa8ba5
disco2011-01-21d01t04.flac:f3bb87bcced756656461e5fc4cd72369
disco2011-01-21d01t05.flac:144f361c9d99387fa1c161bc72f66fb8
disco2011-01-21d01t06.flac:8253f61aa74a13cc796e49720b4cda03
disco2011-01-21d01t07.flac:9b09f9d6b0e6012c4670fa1049c1580d
disco2011-01-21d02t01.flac:3375cc9f5a17834a2049d94dcebb6891
disco2011-01-21d02t02.flac:331605be9e1528d95be52c93ff4fbe3b
disco2011-01-21d02t03.flac:469ac6afa32826b1fcd758b5e57857b3
disco2011-01-21d02t04.flac:82aad8249a1a698d6cb64eb305eb4865
disco2011-01-21d02t05.flac:a8b39b6ff7284aac501585113011a366
disco2011-01-21d02t06.flac:1214c39232eb4288f7582b8afae9efd3
disco2011-01-21d02t07.flac:0425cca2f3dafa98ac7676a3a4f625a4
disco2011-01-21d02t08.flac:78a5e8efd32ac7fa88152ae993c8123c
disco2011-01-21d02t09.flac:c27e4ab113d8b7cc2f79920656692df0

Shntool 

    length     expanded size    cdr  WAVE problems  fmt   ratio  filename
     1:25.21       15043436 B   ---   --   ---xx   flac  0.3536  disco2011-01-21d01t01.flac
     5:43.35       60587564 B   ---   --   ---xx   flac  0.4961  disco2011-01-21d01t02.flac
    13:09.09      139200812 B   ---   --   ---xx   flac  0.5171  disco2011-01-21d01t03.flac
    12:39.03      133894700 B   ---   --   ---xx   flac  0.5020  disco2011-01-21d01t04.flac
    15:03.46      159397436 B   ---   --   ---xx   flac  0.4847  disco2011-01-21d01t05.flac
    14:48.26      156704396 B   ---   --   ---xx   flac  0.5014  disco2011-01-21d01t06.flac
     2:58.01       31401596 B   ---   --   ---xx   flac  0.4102  disco2011-01-21d01t07.flac
     2:00.37       21255068 B   ---   --   ---xx   flac  0.3596  disco2011-01-21d02t01.flac
    14:15.00      150822044 B   ---   --   ---xx   flac  0.4806  disco2011-01-21d02t02.flac
    15:49.14      167436572 B   ---   --   ---xx   flac  0.4989  disco2011-01-21d02t03.flac
    10:18.66      109170476 B   ---   --   ---xx   flac  0.5348  disco2011-01-21d02t04.flac
    19:52.36      210353516 B   ---   --   ---xx   flac  0.4914  disco2011-01-21d02t05.flac
     1:18.54       13886252 B   ---   --   ---xx   flac  0.3534  disco2011-01-21d02t06.flac
    10:02.63      106341020 B   ---   --   ---xx   flac  0.4979  disco2011-01-21d02t07.flac
     1:07.09       11840012 B   ---   --   ---xx   flac  0.2992  disco2011-01-21d02t08.flac
    11:43.59      124148012 B   ---   --   ---xx   flac  0.5057  disco2011-01-21d02t09.flac
   152:15.29     1611482912 B                            0.4920  (16 files)






More information about the bittorrent mailing list