[bittorrent] Umphrey's McGee Now Sapphire (On The Beach) Riviera Cancun, Mexico 1/21/2011 (Schoeps CCM4V'S FOB)

Automated Mailer noreply-bt.e at etree.org
Sat Jan 22 11:35:07 MST 2011


Band:           Umphrey's McGee
Torrent Name:   Umphrey's McGee Now Sapphire (On The Beach) Riviera Cancun, Mexico 1/21/2011 (Schoeps CCM4V'S FOB)
Uploaded by:    zmanatl
DB Link:        
Details:        http://bt.etree.org/details.php?id=541880

Contact the seeder at http://db.etree.org/zmanatl

If the link to this show does not work, it was probably removed for
being non-trade-friendly.

Description / text file:
-------------------------
Umphrey's McGee
Mayan Holidaze
Now Sapphire Resort - On The Beach
Riviera Cancun, Mexico
1/21/2011

Source: Schoeps CCM4V'S(din)>Lunatec V2>Benchmark AD2K>
Sound Devices 722 (24/48)
FOB/FOC/DFC/KFC/ZFC/AARP 60' From Stage, 7' High
DSP: Sound Devices 722>Sound Forge 9.0>CD Wave>flac(16)
Recorded By: Z-Man
Seeded By: Z-Man

Disc I 1st Set

01 Nothing Too Fancy >
02 Ocean Billy >
03 Plunger >
04 Jimmy Stewart >
05 Plunger
06 Peg 
07 Booth Love >
08 Superstitious Jam >
09 Miss Tinkles Overture

Disc II 2nd Set

01 Hurt Birdbath
02 *In The Kitchen 
03 Jajunk >
04 Ocean Billy 
05 Conduit >
06 Nothing Too Fancy
07 #@Ain't No Fun
Encore:
08 Chris's Lounge Groove >
09 Jajunk

* Brendan Sings In Spanish
# Andy Sings At Front Of Stage
@ With Explosive Riffs

Flac Fingerprint 

um2011-01-21d01t01.flac:4b35f8f3b20ed0a6905c6d40adef61bb
um2011-01-21d01t02.flac:c54b28944964c5a611e1b78b2a764161
um2011-01-21d01t03.flac:524497016ce7e9dea7055b0575f47661
um2011-01-21d01t04.flac:8df05203696021935b92c546e9800852
um2011-01-21d01t05.flac:ce871244f49799b14e2f0d6d32116c74
um2011-01-21d01t06.flac:e4843c23eedd6434658638e3f3a65007
um2011-01-21d01t07.flac:c8528d9b9a778bf8ff5b4ca00b6f7ba5
um2011-01-21d01t08.flac:1c0370d3594648dedd6c6d8501667b93
um2011-01-21d01t09.flac:2146e20c916ef5a2875204072897dac1
um2011-01-21d02t01.flac:5e65eb98dcb9ede055916038c59416b7
um2011-01-21d02t02.flac:0069358399f94f8aa498e98b88071a0c
um2011-01-21d02t03.flac:db2c1f10d01618580219e4b3ae895651
um2011-01-21d02t04.flac:62479e92500c15fb2825b08e145e06e3
um2011-01-21d02t05.flac:ffedaa49709d2faf41373a79900598d3
um2011-01-21d02t06.flac:3c7dac2f75c907b9fca0818b49cb843e
um2011-01-21d02t07.flac:d7427390e0aef0b9c7e02d1c9685307e
um2011-01-21d02t08.flac:0bb873f503447e666066aa60e15ddc32
um2011-01-21d02t09.flac:abaf65e0494cc37f8c68a783d7a449bf

Shntool 

    length     expanded size    cdr  WAVE problems  fmt   ratio  filename
    10:52.43      115113980 B   ---   --   ---xx   flac  0.4497  um2011-01-21d01t01.flac
     7:16.16       76948076 B   ---   --   ---xx   flac  0.4452  um2011-01-21d01t02.flac
     9:36.46      101714636 B   ---   --   ---xx   flac  0.4450  um2011-01-21d01t03.flac
     6:59.32       73986908 B   ---   --   ---xx   flac  0.4500  um2011-01-21d01t04.flac
     4:18.54       45638252 B   ---   --   ---xx   flac  0.3792  um2011-01-21d01t05.flac
     4:50.15       51191324 B   ---   --   ---xx   flac  0.4588  um2011-01-21d01t06.flac
     6:43.63       71237420 B   ---   --   ---xx   flac  0.4241  um2011-01-21d01t07.flac
     4:05.43       43319180 B   ---   --   ---xx   flac  0.4722  um2011-01-21d01t08.flac
    10:04.45      106651484 B   ---   --   ---xx   flac  0.4842  um2011-01-21d01t09.flac
    17:50.64      188898572 B   ---   --   ---xx   flac  0.4491  um2011-01-21d02t01.flac
    16:36.36      175779116 B   ---   --   ---xx   flac  0.4361  um2011-01-21d02t02.flac
     7:51.60       83225564 B   ---   --   ---xx   flac  0.4312  um2011-01-21d02t03.flac
     4:05.13       43248620 B   ---   --   ---xx   flac  0.4076  um2011-01-21d02t04.flac
     6:20.22       67083788 B   ---   --   ---xx   flac  0.4675  um2011-01-21d02t05.flac
     7:34.59       80224412 B   ---   --   ---xx   flac  0.4581  um2011-01-21d02t06.flac
     5:19.08       56290460 B   ---   --   ---xx   flac  0.4440  um2011-01-21d02t07.flac
     4:46.71       50617436 B   ---   --   ---xx   flac  0.4351  um2011-01-21d02t08.flac
     5:40.17       60016028 B   ---   --   ---xx   flac  0.4803  um2011-01-21d02t09.flac
   140:53.32     1491185256 B                            0.4471  (18 files)







More information about the bittorrent mailing list