[bittorrent] The Heavy Pets - Highline Balllroom 2010-11-26.mtx.miller.flac16

Automated Mailer noreply-bt.e at etree.org
Fri Jan 21 20:09:22 MST 2011


Band:           The Heavy Pets
Torrent Name:   The Heavy Pets - Highline Balllroom 2010-11-26.mtx.miller.flac16
Uploaded by:    jam8
DB Link:        
Details:        http://bt.etree.org/details.php?id=541872

Contact the seeder at http://db.etree.org/jam8

If the link to this show does not work, it was probably removed for
being non-trade-friendly.

Description / text file:
-------------------------
The Heavy Pets - November 26, 2010
Highline Ballroom - New York, NY

Recording Info:
SBD (Stereo Feed From Charlie Miller's House Mix) + (Stage) Schoeps CMC6/MK4 ->
Sound Devices 744T (24bit/44.1k) -> Samplitude Professional v11.1 -> FLAC/16
(1 Disc Audio / 1 Disc FLAC)

Recorded and Mixed By Charlie Miller
charlie at theheavypets.org

Notes:
-- Opening for U-Melt
-- Due to technical problems the vocals come in late on first song
-- This was my first show as soundman for The Heavy Pets

Setlist:
d1t01 - Dew Point
d1t02 - Chew
d1t03 - Pass It Down
d1t04 - No More Time
d1t05 - Earth Chaser
d1t06 - Eleanor B. Roosevelt
d1t07 - Sigismondi


SHNTOOL OUTPUT:
    length     expanded size   cdr  WAVE problems filename
    13:29.51      142827596    ---   --   -----   thp2010-11-26d1t01.wav
     6:13.73       65968940    ---   --   -----   thp2010-11-26d1t02.wav
    10:02.26      106253996    ---   --   -----   thp2010-11-26d1t03.wav
     5:08.51       54451196    ---   --   -----   thp2010-11-26d1t04.wav
     6:13.13       65827820    ---   --   -----   thp2010-11-26d1t05.wav
     8:57.64       94877372    ---   --   -----   thp2010-11-26d1t06.wav
    12:12.63      129273020    ---   --   -----   thp2010-11-26d1t07.wav
    62:18.41      659479940 B                     (totals for 7 files)




More information about the bittorrent mailing list