[bittorrent] Nickel Bag Of Funk Smith's Olde Bar Atlanta, Georgia 1/16/2011 (Schoeps CCM4V'S FOB)

Automated Mailer noreply-bt.e at etree.org
Mon Jan 17 20:42:08 MST 2011


Band:           Other
Torrent Name:   Nickel Bag Of Funk Smith's Olde Bar Atlanta, Georgia 1/16/2011 (Schoeps CCM4V'S FOB)
Uploaded by:    zmanatl
DB Link:        
Details:        http://bt.etree.org/details.php?id=541811

Contact the seeder at http://db.etree.org/zmanatl

If the link to this show does not work, it was probably removed for
being non-trade-friendly.

Description / text file:
-------------------------
Nickel Bag Of Funk
Smith's Olde Bar
Atlanta, Georgia
1/16/2011

Source: Schoeps CCM4V'S(din)>Lunatec V2>Benchmark AD2K>
Sound Devices 722 (24/48)
FOB/DFC/KFC/ZFC/AARP 15' From Stage, 7' High
DSP: Sound Devices 722>Sound Forge 9.0>CD Wave>flac(16)
Recorded By: Z-Man
Seeded By: Z-Man

Disc I 

01 In The Air Tonight >
02 ? >
03 Feel Good >
04 Drum Solo >
05 Shake That Leg
06 This Is How We Do It
07 What Do I Know
08 ?
09 Give Me The Green Light
10 ? >
11 I Feel Like Funkin' It Up
12 Hey Pockey Way >
13 I Feel Like Funkin' It Up >
14 Drum Solo >
15 I Feel like Funkin' It Up

Flac Fingerprint 

nbof2011-01-16d01t01.flac:a19ba0b8b255b03f1190302038bc1719
nbof2011-01-16d01t02.flac:ca11e977036f286f333625331f17c8b3
nbof2011-01-16d01t03.flac:4e5e374368981b7d844bfa584a90bb8d
nbof2011-01-16d01t04.flac:e0f6b40f1bab40f6847785d6c1363935
nbof2011-01-16d01t05.flac:24d3ce9db7dee86bbfb5bbb38ccad454
nbof2011-01-16d01t06.flac:0e271a984aef347a1ba905b11bb9947c
nbof2011-01-16d01t07.flac:2f99455fa26529a8ffa81880dea2f3ce
nbof2011-01-16d01t08.flac:0ad5fa97df0ded4220f10c825a6157bb
nbof2011-01-16d01t09.flac:9e3c052ea600f0ad625055efc19851cf
nbof2011-01-16d01t10.flac:9ffec5d056a191f98df08576bd2f6d20
nbof2011-01-16d01t11.flac:8bc9ba22539d0532fc93590bdc6fb4b2
nbof2011-01-16d01t12.flac:a42cf4233d15ae53c2801f12bbea8b41
nbof2011-01-16d01t13.flac:54607978f21ea99961136ba3eef9c3d8
nbof2011-01-16d01t14.flac:ce5bc032459cd18b18575b2125754671
nbof2011-01-16d01t15.flac:db0ba5ef00f14acf7eb51ba7d1db40b1

Shntool 

    length     expanded size    cdr  WAVE problems  fmt   ratio  filename
     5:32.42       58663628 B   ---   --   ---xx   flac  0.5666  nbof2011-01-16d01t01.flac
     6:28.60       68584364 B   ---   --   ---xx   flac  0.5197  nbof2011-01-16d01t02.flac
     5:07.26       54215996 B   ---   --   ---xx   flac  0.5514  nbof2011-01-16d01t03.flac
     0:38.73        6874940 B   ---   --   ---xx   flac  0.5609  nbof2011-01-16d01t04.flac
     7:40.61       81287516 B   ---   --   ---xx   flac  0.5598  nbof2011-01-16d01t05.flac
     4:10.06       44114156 B   ---   --   ---xx   flac  0.5284  nbof2011-01-16d01t06.flac
     9:05.72       96307388 B   ---   --   ---xx   flac  0.5193  nbof2011-01-16d01t07.flac
     5:38.44       59726732 B   ---   --   ---xx   flac  0.5175  nbof2011-01-16d01t08.flac
     7:48.08       82574060 B   ---   --   ---xx   flac  0.5017  nbof2011-01-16d01t09.flac
     4:11.46       44384636 B   ---   --   ---xx   flac  0.4785  nbof2011-01-16d01t10.flac
     1:17.03       13589900 B   ---   --   ---xx   flac  0.5272  nbof2011-01-16d01t11.flac
     0:18.27        3238748 B   ---   --   ---xx   flac  0.5615  nbof2011-01-16d01t12.flac
     4:50.44       51259532 B   ---   --   ---xx   flac  0.5499  nbof2011-01-16d01t13.flac
     0:52.71        9339836 B   ---   --   ---xx   flac  0.5314  nbof2011-01-16d01t14.flac
     3:31.11       37246316 B   ---   --   ---xx   flac  0.5386  nbof2011-01-16d01t15.flac
    67:12.69      711407748 B                            0.5302  (15 files)







More information about the bittorrent mailing list